2 сезон

iTunes

1 сезон

1

iTunes

iTunes

iTunes

1 сезон

RePack

30

ИГРА 18+

pack

ВАЖНО

!!Акция!!

Alien_RageХит недели

RePack

MK11
pack

Забери бонус

RePack

jed

!!Акция!!

Alien_Rage

RePack

fifa19

RePack

Assassins Creed: Odyssey

RePack

NEED FOR SPEED™ PAYBACK

4 сезон

9 сезон

Бесстыжие 9 сезон

Все сериалы

все сериалы на PB.wtf

RePack

FAR CRY 5
  

Салон Китти / Salon Kitty (Тинто Брасс) [1976, драма, эротика, BDRip 720p by msltel] DVO pb.wtf

Салон Китти через торрент pb.wtf

Размер: 7.08 GB | Добавлен: 3 года 2 мес. назад | Торрент скачан:132 раза
Скачать  

26-08-2017 05:17 Салон Китти Скачать торрент  

Название: Салон Китти
Оригинальное название: Salon Kitty
Год выпуска: 1976
Страна: Италия, Германия (ФРГ), Франция
Жанр: драма, эротика
Продолжительность: 02:13:11
Перевод: профессиональный двухголосый

Режиссер: Тинто Брасс
В ролях: Хельмут Бергер, Ингрид Тулин, Тереза Энн Савой, Джон Стайнер, Сара Сперати, Мария Мичи, Паола Сенаторе, Ульрих Хаупт, Стефано Сатта Флорес, Тина Омон

О фильме: Нацистская Германия. Танцовщица Китти содержит салон, куда приходят «расслабляться» высшие чины рейха. Их обслуживают девушки только чистейшей арийской крови. Они проходят строжайший отбор и обязаны повиноваться любым приказам высокопоставленного офицера СС Валленберга. Повсюду в салоне расставлены потайные микрофоны и записывающие устройства, а девушкам приказано доносить о любом клиенте, кто хоть немного отклоняется от партийной линии. Всё идёт хорошо до тех пор, пока одна из девушек, любовница самого Валленберга Маргерита, не влюбляется в офицера люфтваффе, разочаровавшегося в идеях национал-социализма…



Качество: BDRip 720p
Формат: MKV
Видео: MPEG-4 AVC, 7221 Кбит/с, 1280x686, 23.976 кадр/с
Аудио 1: русский, AC3, 192 kbps, 2 ch [профессиональный двухголосый, Союз видео]
Аудио 2: итальянский, AC3, 192 kbps, 1 ch, 48 kHz [оригинал]
Субтитры: английские
Общее
Уникальный идентификатор : 227748580074677285342972332299382300038 (0xAB56C7F0A5EDD48DA7510984690A1D86)
Полное имя : D:\Video\Салон Китти.1976.BDRip.720p by msltel.mkv
Формат : Matroska
Версия формата : Version 4 / Version 2
Размер файла : 7,08 Гбайт
Продолжительность : 2 ч. 13 м.
Общий поток : 7608 Кбит/сек
Название фильма : Rip by msltel
Дата кодирования : UTC 2017-08-26 02:03:54
Программа кодирования : mkvmerge v8.2.0 ('World of Adventure') 64bit
Библиотека кодирования : libebml v1.3.1 + libmatroska v1.4.2

Видео
Идентификатор : 1
Формат : AVC
Формат/Информация : Advanced Video Codec
Профиль формата : High@L4.1
Параметр CABAC формата : Да
Параметр RefFrames формата : 9 кадров
Идентификатор кодека : V_MPEG4/ISO/AVC
Продолжительность : 2 ч. 13 м.
Битрейт : 7221 Кбит/сек
Ширина : 1280 пикселей
Высота : 686 пикселей
Соотношение сторон : 1,85:1
Режим частоты кадров : Постоянный
Частота кадров : 23,976 (24000/1001) кадра/сек
Цветовое пространство : YUV
Субдискретизация насыщенности : 4:2:0
Битовая глубина : 8 бит
Тип развёртки : Прогрессивная
Бит/(Пиксели*Кадры) : 0.343
Размер потока : 6,72 Гбайт (95%)
Библиотека кодирования : x264 core 146 r2538 121396c
Настройки программы : cabac=1 / ref=9 / deblock=1:-3:-2 / analyse=0x3:0x113 / me=umh / subme=11 / psy=1 / psy_rd=1.00:0.15 / mixed_ref=1 / me_range=32 / chroma_me=1 / trellis=2 / 8x8dct=1 / cqm=0 / deadzone=21,11 / fast_pskip=0 / chroma_qp_offset=-3 / threads=6 / lookahead_threads=1 / sliced_threads=0 / nr=0 / decimate=1 / interlaced=0 / bluray_compat=0 / constrained_intra=0 / bframes=7 / b_pyramid=2 / b_adapt=2 / b_bias=0 / direct=1 / weightb=1 / open_gop=0 / weightp=2 / keyint=230 / keyint_min=23 / scenecut=40 / intra_refresh=0 / rc_lookahead=40 / rc=crf / mbtree=0 / crf=21.0 / qcomp=0.60 / qpmin=0 / qpmax=69 / qpstep=4 / vbv_maxrate=62500 / vbv_bufsize=78125 / crf_max=0.0 / nal_hrd=none / filler=0 / ip_ratio=1.40 / pb_ratio=1.30 / aq=1:1.00
Язык : Italian
Default : Да
Forced : Нет

Аудио #1
Идентификатор : 2
Формат : AC-3
Формат/Информация : Audio Coding 3
Параметр Endianness формата : Big
Идентификатор кодека : A_AC3
Продолжительность : 2 ч. 13 м.
Вид битрейта : Постоянный
Битрейт : 192 Кбит/сек
Каналы : 2 канала
Расположение каналов : Front: L R
Частота : 48,0 КГц
Частота кадров : 31,250 кадров/сек (1536 SPF)
Битовая глубина : 16 бит
Метод сжатия : С потерями
Размер потока : 183 Мбайт (3%)
Заголовок : DVO (Союз видео)
Язык : Russian
ServiceKind/String : Complete Main
Default : Да
Forced : Нет

Аудио #2
Идентификатор : 3
Формат : AC-3
Формат/Информация : Audio Coding 3
Параметр Endianness формата : Big
Идентификатор кодека : A_AC3
Продолжительность : 2 ч. 13 м.
Вид битрейта : Постоянный
Битрейт : 192 Кбит/сек
Каналы : 1 канал
Расположение каналов : Front: C
Частота : 48,0 КГц
Частота кадров : 31,250 кадров/сек (1536 SPF)
Битовая глубина : 16 бит
Метод сжатия : С потерями
Размер потока : 183 Мбайт (3%)
Заголовок : original
Язык : Italian
ServiceKind/String : Complete Main
Default : Нет
Forced : Нет

Текст
Идентификатор : 4
Формат : UTF-8
Идентификатор кодека : S_TEXT/UTF8
Идентификатор кодека/Информация : UTF-8 Plain Text
Продолжительность : 2 ч. 12 м.
Битрейт : 50 бит/сек
ElementCount : 1464
Размер потока : 49,5 Кбайт (0%)
Заголовок : английские
Язык : English
Default : Нет
Forced : Нет
pb.wtf



Скачать Салон Китти через торрент http://s013.radikal.ru/i325/1708/08/03335bee108e.jpg Скачать фильм Салон Китти через торрент бесплантно в хорошем качестве О фильме: Нацистская Германия. Танцовщица Китти содержит салон, куда приходят «расслабляться» высшие чины рейха. Их обслуживают девушки ... 10 10 1
Info! Золотая раздача, скачанное не засчитывается.
Торрент: Зарегистрирован [2017-08-26 05:17] · скачан: 132 раз
Статус: √ проверено
Размер: 7.08 GB
Как cкачать? Как скачать Салон Китти через торрент | qTorrent

% Раздел Тема Автор DL S | L
Фильмы [HD 720p, 1080p] (Хороший звук DUB, MVO) [ 19.28 GB ] Салон Китти / Salon Kitty [1976 эротика BDRip 1080p by msltel] DVO msltel Скачать
1 | 0

28-11-2019 20:33  

Отключить всю рекламу на сайте

    Дорогой пользователь! Огромная просьба, поблагодарите релизера, оцените раздачу и оставьте свои комментарий, если Вы скачали Салон Китти через торрент бесплатно! Внесите свою лепту в развитие PiratBit!
    Комментировать посты могут только пользователи прошедшие не сложную регистрацию
    Показать сообщения:    

    Салон Китти через торрент
    Скачать бесплатно Салон Китти
    Салон Китти скачать торрент
    Салон Китти смотреть онлайн
    Cкачать фильм Салон Китти бесплатно
    Салон Китти скачать торрент в хорошем качестве
    Салон Китти смотреть онлайн бесплатно в хорошем качестве


    Вы не можете начинать темы
    Вы не можете отвечать на сообщения
    Вы не можете редактировать свои сообщения
    Вы не можете удалять свои сообщения
    Вы не можете голосовать в опросах
    Вы не можете прикреплять файлы к сообщениям
    Вы можете скачивать файлы