Ссылка на приватное зеркало нашего сайта всего за 1$. Внимание количество ограничено!!!

2 сезон

iTunes

1 сезон

1

2 сезон

2 сезон

iTunes

1 сезон

RePack

30

Ultimate

ВАЖНО

ИГРА 18+

pack

RePack

MK11
pack

Забери бонус

RePack

jed

!!Акция!!

Alien_Rage

RePack

fifa19

RePack

Assassins Creed: Odyssey

RePack

NEED FOR SPEED™ PAYBACK

4 сезон

9 сезон

Бесстыжие 9 сезон

Все сериалы

все сериалы на PB.wtf

RePack

FAR CRY 5
  

Трансфигурация / The Transfiguration (Майкл О’Ши) [2016, ужасы, драма, BDRip 720p by msltel] VO pb.wtf

Трансфигурация через торрент pb.wtf

Размер: 3.52 GB | Добавлен: 3 года 3 мес. назад | Торрент скачан:96 раз
Скачать  

26-08-2017 06:22 Трансфигурация Скачать торрент  

Название: Трансфигурация
Оригинальное название: The Transfiguration
Год выпуска: 2016
Страна: США
Жанр: ужасы, драма
Продолжительность: 01:37:20
Перевод: любительский одноголосый

Режиссер: Майкл О’Ши
В ролях: Эрик Руффин, Хлоя Ливайн, Джелли Бин, Данджелло Бонелли, Андреа Кордаро, Ларри Фессенден, Дэн Флаэрти, Анна Фридман, Хосе Игнасио Гомез, Джада Джарвис

О фильме: Майло чернокожий «ботаник», живущий с братом в опасном квартале Нью-Йорка. Майло одержим вампирами и считает, что вампиром можно стать, если пить кровь людей. И на его счету уже несколько случайных жертв. Однажды в его дом заселяется белая девушка по имени Софи. Несмотря на нелюдимость Майло и его одержимость кровью, смертью и ужастиками о вампирах, она искренне заинтересовывается новым соседом. Но когда-нибудь она узнает его темный секрет...



Качество: BDRip 720p
Формат: MKV
Видео: MPEG-4 AVC,
Аудио 1: русский, AC3, 448 kbps, 6 ch, 48 kHz [любительский одноголосый, Василий Парижанин]
Аудио 2: английский, AC3, 448 kbps, 6 ch, 48 kHz [оригинал]
Субтитры 1: русские (Lexandros)
Субтитры 2: английские
Имеются неименованные главы/чаптеры.
Общее
Уникальный идентификатор : 219360843659295497803751528714361275297 (0xA5075C9B2F94FC97A48237CC0C4E83A1)
Полное имя : D:\Video\Трансфигурация.2016.BDRip.720p by msltel.mkv
Формат : Matroska
Версия формата : Version 4 / Version 2
Размер файла : 3,52 Гбайт
Продолжительность : 1 ч. 37 м.
Общий поток : 5182 Кбит/сек
Название фильма : Rip by msltel
Дата кодирования : UTC 2017-08-26 02:37:48
Программа кодирования : mkvmerge v8.2.0 ('World of Adventure') 64bit
Библиотека кодирования : libebml v1.3.1 + libmatroska v1.4.2

Видео
Идентификатор : 1
Формат : AVC
Формат/Информация : Advanced Video Codec
Профиль формата : High@L4.1
Параметр CABAC формата : Да
Параметр RefFrames формата : 9 кадров
Идентификатор кодека : V_MPEG4/ISO/AVC
Продолжительность : 1 ч. 37 м.
Битрейт : 4284 Кбит/сек
Ширина : 1280 пикселей
Высота : 536 пикселей
Соотношение сторон : 2,40:1
Режим частоты кадров : Постоянный
Частота кадров : 23,976 (24000/1001) кадра/сек
Цветовое пространство : YUV
Субдискретизация насыщенности : 4:2:0
Битовая глубина : 8 бит
Тип развёртки : Прогрессивная
Бит/(Пиксели*Кадры) : 0.260
Размер потока : 2,91 Гбайт (83%)
Библиотека кодирования : x264 core 146 r2538 121396c
Настройки программы : cabac=1 / ref=9 / deblock=1:-3:-2 / analyse=0x3:0x113 / me=umh / subme=11 / psy=1 / psy_rd=1.00:0.15 / mixed_ref=1 / me_range=32 / chroma_me=1 / trellis=2 / 8x8dct=1 / cqm=0 / deadzone=21,11 / fast_pskip=0 / chroma_qp_offset=-3 / threads=6 / lookahead_threads=1 / sliced_threads=0 / nr=0 / decimate=1 / interlaced=0 / bluray_compat=0 / constrained_intra=0 / bframes=15 / b_pyramid=2 / b_adapt=2 / b_bias=0 / direct=1 / weightb=1 / open_gop=0 / weightp=2 / keyint=230 / keyint_min=23 / scenecut=40 / intra_refresh=0 / rc_lookahead=40 / rc=crf / mbtree=0 / crf=17.0 / qcomp=0.60 / qpmin=0 / qpmax=69 / qpstep=4 / vbv_maxrate=62500 / vbv_bufsize=78125 / crf_max=0.0 / nal_hrd=none / filler=0 / ip_ratio=1.40 / pb_ratio=1.30 / aq=1:1.00
Язык : English
Default : Да
Forced : Нет

Аудио #1
Идентификатор : 2
Формат : AC-3
Формат/Информация : Audio Coding 3
Параметр Endianness формата : Big
Идентификатор кодека : A_AC3
Продолжительность : 1 ч. 37 м.
Вид битрейта : Постоянный
Битрейт : 448 Кбит/сек
Каналы : 6 каналов
Расположение каналов : Front: L C R, Side: L R, LFE
Частота : 48,0 КГц
Частота кадров : 31,250 кадров/сек (1536 SPF)
Битовая глубина : 16 бит
Метод сжатия : С потерями
Размер потока : 312 Мбайт (9%)
Заголовок : любительский одноголосый, В. Парижанин
Язык : Russian
ServiceKind/String : Complete Main
Default : Да
Forced : Нет

Аудио #2
Идентификатор : 3
Формат : AC-3
Формат/Информация : Audio Coding 3
Параметр Endianness формата : Big
Идентификатор кодека : A_AC3
Продолжительность : 1 ч. 37 м.
Вид битрейта : Постоянный
Битрейт : 448 Кбит/сек
Каналы : 6 каналов
Расположение каналов : Front: L C R, Side: L R, LFE
Частота : 48,0 КГц
Частота кадров : 31,250 кадров/сек (1536 SPF)
Битовая глубина : 16 бит
Метод сжатия : С потерями
Размер потока : 312 Мбайт (9%)
Заголовок : original
Язык : English
ServiceKind/String : Complete Main
Default : Нет
Forced : Нет

Текст #1
Идентификатор : 4
Формат : UTF-8
Идентификатор кодека : S_TEXT/UTF8
Идентификатор кодека/Информация : UTF-8 Plain Text
Продолжительность : 1 ч. 30 м.
Битрейт : 41 бит/сек
ElementCount : 617
Размер потока : 27,3 Кбайт (0%)
Заголовок : русские
Язык : Russian
Default : Нет
Forced : Нет

Текст #2
Идентификатор : 5
Формат : UTF-8
Идентификатор кодека : S_TEXT/UTF8
Идентификатор кодека/Информация : UTF-8 Plain Text
Продолжительность : 1 ч. 26 м.
Битрейт : 33 бит/сек
ElementCount : 682
Размер потока : 21,2 Кбайт (0%)
Заголовок : английские
Язык : English
Default : Нет
Forced : Нет

Меню
00:00:00.000 : en:00:00:00.000
00:09:34.616 : en:00:09:34.616
00:20:29.812 : en:00:20:29.812
00:29:10.791 : en:00:29:10.791
00:39:11.266 : en:00:39:11.266
00:50:05.294 : en:00:50:05.294
00:59:56.384 : en:00:59:56.384
01:12:05.029 : en:01:12:05.029
01:20:04.800 : en:01:20:04.800
01:32:23.747 : en:01:32:23.747
pb.wtf



Скачать Трансфигурация через торрент http://s011.radikal.ru/i315/1708/bd/a54f9c786d27.jpg Скачать фильм Трансфигурация через торрент бесплантно в хорошем качестве О фильме: Майло чернокожий «ботаник», живущий с братом в опасном квартале Нью-Йорка. Майло одержим вампирами и считает, что вампиром можно ... 7.8 10 5
Info! Золотая раздача, скачанное не засчитывается.
Торрент: Зарегистрирован [2017-08-26 06:22] · скачан: 96 раз
Статус: √ проверено
Размер: 3.52 GB
Как cкачать? Как скачать Трансфигурация через торрент | qTorrent

% Раздел Тема Автор DL S | L
T Релизы по Парсеру [Игры, Сериалы и Фильмы и другое...] [ 1.44 GB ] Трансфигурация / The Transfiguration [2016 BDRip] MVO [GreenРай Studio] bober100 Скачать
1 | 0
# Фильмы [HD 720p, 1080p] (Хороший звук DUB, MVO) [ 2.83 GB ] Трансфигурация / The Transfiguration [2016 BDRip 720p] MVO [GreenРай Studio] bober100 Скачать
1 | 0
Фильмы [HD 720p, 1080p] (Звук Cam, VO, DVO) [ 10.92 GB ] Трансфигурация / The Transfiguration [2016 BDRip 1080p by msltel] VO msltel Скачать
1 | 0

28-11-2019 20:33  

Отключить всю рекламу на сайте

    Дорогой пользователь! Огромная просьба, поблагодарите релизера, оцените раздачу и оставьте свои комментарий, если Вы скачали Трансфигурация через торрент бесплатно! Внесите свою лепту в развитие PiratBit!
    Комментировать посты могут только пользователи прошедшие не сложную регистрацию
    Показать сообщения:    

    Трансфигурация через торрент
    Скачать бесплатно Трансфигурация
    Трансфигурация скачать торрент
    Трансфигурация смотреть онлайн
    Cкачать фильм Трансфигурация бесплатно
    Трансфигурация скачать торрент в хорошем качестве
    Трансфигурация смотреть онлайн бесплатно в хорошем качестве


    Вы не можете начинать темы
    Вы не можете отвечать на сообщения
    Вы не можете редактировать свои сообщения
    Вы не можете удалять свои сообщения
    Вы не можете голосовать в опросах
    Вы не можете прикреплять файлы к сообщениям
    Вы можете скачивать файлы