Ссылка на приватное зеркало нашего сайта всего за 1$. Внимание количество ограничено!!!

2 сезон

iTunes

1 сезон

1

2 сезон

2 сезон

iTunes

1 сезон

RePack

30

Новинка

ВАЖНО

ИГРА 18+

pack

RePack

MK11
pack

Забери бонус

RePack

jed

!!Акция!!

Alien_Rage

RePack

fifa19

RePack

Assassins Creed: Odyssey

RePack

NEED FOR SPEED™ PAYBACK

4 сезон

9 сезон

Бесстыжие 9 сезон

Все сериалы

все сериалы на PB.wtf

RePack

FAR CRY 5
  

Защитники / The Defenders / Сезон: 1 / Серии 1-8 из 8 (С.Дж. Кларксон / S.J. Clarkson) [2017, фантастика, боевик, криминал, комикс, WEBRip 1080p] [MVO] (Jaskier) pb.wtf

Защитники через торрент pb.wtf

Размер: 12.64 GB | Добавлен: 3 года 3 мес. назад | Торрент скачан:66 раз
Скачать  

26-08-2017 08:54 Защитники Скачать торрент  

Защитники | The Defenders Год выпуска: 2017
Страна: США
Жанр: Фантастика, боевик, криминал, приключения
Продолжительность: ~ 00:45:00
Перевод: Профессиональный (многоголосый закадровый) | Jaskier
Режиссёр: С.Дж. Кларксон, Ута Бризвитц, Питер Хор

В ролях: Финн Джонс, Майк Колтер, Чарли Кокс, Джессика Хенвик, Кристен Риттер, Сигурни Уивер, Элоди Юнг, Розарио Доусон, Бабс Олусанмокун, Элден Хенсон и др.

Описание: Сериал-кроссовер расскажет о том, как уличные герои-борцы с преступниками Сорвиголова, Джессика Джонс, Люк Кейдж и Железный кулак объединятся в команду для общей миссии.

|

Качество: WEBRip 1080p
Формат: MKV
Видео: 1920x1080 (16:9) | X264 | ~4500 kbps | 23.976 fps
Аудио 1: AC3, 48,0 КГц, 6 ch, 384 kbps - [RUS]
Аудио 2: AC3, 48,0 КГц, 6 ch, 384 kbps - [ENG]
Субтитры: английские
Общее
Уникальный идентификатор                 : 184958147916534294984055723388416980545 (0x8B25A4BFE5205668AC9DBDF42E667641)
Полное имя                               : E:\JASKiER\The Defenders. Season 1 (WEBRip l 1080p l Jaskier)\Marvels.The.Defenders.S01E01.1080p.NF.WEBRip.DDP5.1.H.264-Jaskier.mkv
Формат                                   : Matroska
Версия формата                           : Version 2
Размер файла                             : 1,98 Гбайт
Продолжительность                        : 51 м. 43 с.
Режим общего битрейта                    : Переменный
Общий поток                              : 5475 Кбит/сек
Дата кодирования                         : UTC 2017-08-25 10:56:24
Программа кодирования                    : mkvmerge v7.8.0 ('River Man') 32bit built on Apr  3 2015 12:11:22
Библиотека кодирования                   : libebml v1.3.1 + libmatroska v1.4.2

Видео
Идентификатор                            : 1
Формат                                   : AVC
Формат/Информация                        : Advanced Video Codec
Профиль формата                          : Main@L4
Параметр CABAC формата                   : Да
Параметр ReFrames формата                : 3 кадра
Идентификатор кодека                     : V_MPEG4/ISO/AVC
Продолжительность                        : 51 м. 43 с.
Вид битрейта                             : Переменный
Битрейт                                  : 4598 Кбит/сек
Номинальный битрейт                      : 4870 Кбит/сек
Максимальный битрейт                     : 7305 Кбит/сек
Ширина                                   : 1920 пикселей
Высота                                   : 1080 пикселей
Соотношение сторон                       : 16:9
Режим частоты кадров                     : Постоянный
Частота кадров                           : 23,976 (24000/1001) кадра/сек
Цветовое пространство                    : YUV
Субдискретизация насыщенности            : 4:2:0
Битовая глубина                          : 8 бит
Тип развёртки                            : Прогрессивная
Бит/(Пиксели*Кадры)                      : 0.092
Размер потока                            : 1,66 Гбайт (84%)
Библиотека кодирования                   : x264 core 118
Настройки программы                      : cabac=1 / ref=3 / deblock=1:0:0 / analyse=0x1:0x111 / me=umh / subme=10 / psy=1 / psy_rd=1.00:0.00 / mixed_ref=1 / me_range=24 / chroma_me=1 / trellis=2 / 8x8dct=0 / cqm=0 / deadzone=21,11 / fast_pskip=1 / chroma_qp_offset=-2 / threads=8 / sliced_threads=0 / nr=0 / decimate=1 / interlaced=0 / bluray_compat=0 / constrained_intra=0 / bframes=2 / b_pyramid=0 / b_adapt=2 / b_bias=0 / direct=3 / weightb=1 / open_gop=0 / weightp=2 / keyint=48 / keyint_min=25 / scenecut=0 / intra_refresh=0 / rc_lookahead=0 / rc=2pass / mbtree=1 / bitrate=4870 / ratetol=1.0 / qcomp=0.50 / qpmin=6 / qpmax=51 / qpstep=4 / cplxblur=20.0 / qblur=0.5 / vbv_maxrate=7305 / vbv_bufsize=9740 / nal_hrd=vbr / ip_ratio=1.40 / aq=1:1.00
Язык                                     : English
Default                                  : Да
Forced                                   : Нет

Аудио #1
Идентификатор                            : 2
Формат                                   : AC-3
Формат/Информация                        : Audio Coding 3
Параметр Endianness формата              : Big
Идентификатор кодека                     : A_AC3
Продолжительность                        : 51 м. 43 с.
Вид битрейта                             : Постоянный
Битрейт                                  : 384 Кбит/сек
Каналы                                   : 6 каналов
Расположение каналов                     : Front: L C R, Side: L R, LFE
Частота                                  : 48,0 КГц
Частота кадров                           : 31,250 кадров/сек (1536 spf)
Битовая глубина                          : 16 бит
Метод сжатия                             : С потерями
Размер потока                            : 142 Мбайт (7%)
Заголовок                                : Jaskier
Язык                                     : Russian
ServiceKind/String                       : Complete Main
Default                                  : Да
Forced                                   : Нет

Аудио #2
Идентификатор                            : 3
Формат                                   : AC-3
Формат/Информация                        : Audio Coding 3
Параметр Endianness формата              : Big
Идентификатор кодека                     : A_AC3
Продолжительность                        : 51 м. 43 с.
Вид битрейта                             : Постоянный
Битрейт                                  : 384 Кбит/сек
Каналы                                   : 6 каналов
Расположение каналов                     : Front: L C R, Side: L R, LFE
Частота                                  : 48,0 КГц
Частота кадров                           : 31,250 кадров/сек (1536 spf)
Битовая глубина                          : 16 бит
Метод сжатия                             : С потерями
Размер потока                            : 142 Мбайт (7%)
Язык                                     : English
ServiceKind/String                       : Complete Main
Default                                  : Нет
Forced                                   : Нет

Текст
Идентификатор                            : 4
Формат                                   : UTF-8
Идентификатор кодека                     : S_TEXT/UTF8
Идентификатор кодека/Информация          : UTF-8 Plain Text
Язык                                     : English
Default                                  : Нет
Forced                                   : Нет
скриншот  скриншот  скриншот  
pb.wtf



Скачать Защитники через торрент http://i92.fastpic.ru/big/2017/0818/5d/8f1c62f3800e577e4a4c8b478b31735d.png Скачать фильм Защитники через торрент бесплантно в хорошем качестве Описание: Сериал-кроссовер расскажет о том, как уличные герои-борцы с преступниками Сорвиголова, Джессика Джонс, Люк Кейдж и Железный кулак ... 10 10 3
Info! Золотая раздача, скачанное не засчитывается.
Торрент: Зарегистрирован [2017-08-30 18:37] · скачан: 66 раз
Статус: √ проверено
Размер: 12.64 GB
Как cкачать? Как скачать Защитники через торрент | qTorrent

% Раздел Тема Автор DL S | L
Зарубежные сериалы [ 55.41 GB ] Защитники / The Defenders / Сезон: 1 / Серии: 1-8 из 8 [2017 WEBRip 1080p] MVO [TVShows] bober100 Скачать
1 | 0
Зарубежные сериалы [ 12.64 GB ] Защитники / The Defenders / Сезон: 1 / Серии: 1-8 из 8 (С.Дж. Кларксон Ута Бризвитц Питер Хор [2017 WEB-DL 1080p] MVO [LostFilm] bober100 Скачать
1 | 0
Зарубежные сериалы [ 123.48 GB ] Защитники / Marvel's The Defenders / Сезон: 1 / Серии: 1-8 из 8 [2017 WEBRip 2160p] MVO [BaibaKo] bober100 Скачать
1 | 0
Зарубежные сериалы [ 7.24 GB ] Защитники / The Defenders / Сезон: 1 / Серии: 1-8 из 8 [2017 ... WEBRip-AVC by keeper.52] MVO + Original + Sub keeper.52 Скачать
2 | 0
Зарубежные сериалы [ 7.24 GB ] Защитники / The Defenders / Сезон: 1 / Серии: 1-8 из 8 [2017 WEBRip от keeper.52] MVO keeper.52 Скачать
2 | 0
Зарубежные сериалы [ 7.11 GB ] Защитники / Marvel's The Defenders / Сезон 1 / Серии 1-8 из 8 [2017 WEBRip 720p] MVO [Jaskier] bober100 Скачать
1 | 0
Зарубежные сериалы [ 23.41 GB ] Защитники / The Defenders / Сезон: 1 / Серии 1-8 из 8 [2017 комикс WEBRip 1080p] [MVO] killermax2013 Скачать
1 | 0

28-11-2019 20:33  

Отключить всю рекламу на сайте

30-08-2017 18:38 Защитники Скачать торрент  

Proper на 5 и 8-ю серии.pb.wtf



    Дорогой пользователь! Огромная просьба, поблагодарите релизера, оцените раздачу и оставьте свои комментарий, если Вы скачали Защитники через торрент бесплатно! Внесите свою лепту в развитие PiratBit!
    Комментировать посты могут только пользователи прошедшие не сложную регистрацию
    Показать сообщения:    

    Защитники через торрент
    Скачать бесплатно Защитники
    Защитники скачать торрент
    Защитники смотреть онлайн
    Cкачать фильм Защитники бесплатно
    Защитники скачать торрент в хорошем качестве
    Защитники смотреть онлайн бесплатно в хорошем качестве


    Вы не можете начинать темы
    Вы не можете отвечать на сообщения
    Вы не можете редактировать свои сообщения
    Вы не можете удалять свои сообщения
    Вы не можете голосовать в опросах
    Вы не можете прикреплять файлы к сообщениям
    Вы можете скачивать файлы