Ссылка на приватное зеркало всего за 1$. Внимание количество ограничено!!!

iTunes

iTunes

iTunes

1

iTunes

iTunes

iTunes

WEBRip

iTunes

30
pack

$ от Little Big

ВАЖНО

!!Акция!!

Alien_RageХит недели

RePack

Resident Evil 21

ИГРА 18+

pack

RePack

jed

!!Акция!!

Alien_Rage

RePack

fifa19

RePack

Assassins Creed: Odyssey

RePack

NEED FOR SPEED™ PAYBACK

4 сезон

9 сезон

Бесстыжие 9 сезон

Все сериалы

все сериалы на PB.wtf

RePack

FAR CRY 5
  

4 таксиста и собака - 2 (Федор Попов) [2006 г., Комедия, DVDRip-AVC] от ExKinoRay pb.wtf

4 таксиста и собака - 2 через торрент pb.wtf

Размер: 2.85 GB | Добавлен: 2 года 11 мес. назад | Торрент скачан:20 раз
Скачать  

26-08-2017 11:21 4 таксиста и собака - 2 Скачать торрент  

4 таксиста и собака - 2
Год выпуска: 2006
Страна: Россия
Жанр: Комедия
Продолжительность: 02:09:22

Режиссер: Федор Попов

Премьера в мире: 21 декабря 2006

rating

В ролях: Виктор Бычков, Анатолий Горячев, Алексей Панин, Любовь Зайцева, Андрей Федорцов, Джулиано Ди Капуа, Ирина Ефремова, Сергей Рубеко, Игорь Ясулович, Светлана Иванова, Светлана Ходченкова, Роман Мадянов, Александра Березовец-Скачкова, Максим Коновалов

Описание: Захватывающие приключения авантюриста Фигаро продолжаются. Даже став "звездой", неугомонный такс не сидит сложа лапы. Влезая своим длинным носом в очередные нелепые ситуации или создавая их, он ни на минуту не даёт соскучиться своим друзьям-таксистам. Чтобы сохранить заповедник и притравочную станцию, так сказать, "альмаматер" Фигаро, где он прошёл свои самые главные собачьи испытания и получил уроки мужества, они все вместе вступают в схватку с "новым русским" злодеем Угрюмовым. Несмотря на грозящие им опасности, таксисты Таня, Мачо, Лёха и дядя Костя решаются на самые удивительные и смелые поступки. И, похоже, рыжий бестия Фигаро приносит им настоящую удачу. А что может быть большей удачей, как не любовь, которую наконец-то находит не только каждый из "нашей" четвёрки, но также и сам главный виновник всех бед и приключений - длинноносый такс Фигаро?

Качество: DVDRip-AVC
Формат: MKV
Видео кодек: MPEG4
Аудио кодек: AC3
Видео: MPEG-4 AVC, 2700 Кбит/с, 716x550@1018x550, 25 кадров/сек
Аудио#1: AC3, 6 ch, 448 Кбит/с, 48 Кгц
Релиз от:




raw [info]: 716x550p 64:45 @ 25/1 fps (cfr)
x264 [info]: using SAR=64/45
x264 [info]: using cpu capabilities: MMX2 SSE2Fast LZCNT
x264 [info]: profile High, level 4.1
x264 [info]: frame I:1380 Avg QP:16.52 size: 64196
x264 [info]: frame P:40628 Avg QP:19.27 size: 27719
x264 [info]: frame B:152042 Avg QP:20.98 size: 9237
x264 [info]: consecutive B-frames: 1.9% 2.6% 9.9% 9.9% 6.0% 68.0% 1.0% 0.2% 0.3% 0.1% 0.0% 0.1% 0.0% 0.0% 0.0% 0.0% 0.1%
-----
Общее
Уникальный идентификатор : 188026924874986555619980101659269157469 (0x8D74AB229AD97EE2ADBD6914BA2E525D)
Полное имя : D:\Relizes\4.TARCUCTA-2.2006.DVDRip-AVC.ExKinoRay.mkv
Формат : Matroska
Версия формата : Version 2
Размер файла : 2,85 Гбайт
Продолжительность : 2 ч. 9 м.
Общий поток : 3149 Кбит/сек
Дата кодирования : UTC 2017-08-26 08:48:44
Программа кодирования : mkvmerge v7.8.0 ('River Man') 32bit built on Apr 3 2015 12:11:22
Библиотека кодирования : libebml v1.3.1 + libmatroska v1.4.2

Видео
Идентификатор : 1
Формат : AVC
Формат/Информация : Advanced Video Codec
Профиль формата : High@L4.1
Параметр CABAC формата : Да
Параметр ReFrames формата : 14 кадров
Идентификатор кодека : V_MPEG4/ISO/AVC
Продолжительность : 2 ч. 9 м.
Битрейт : 2700 Кбит/сек
Ширина : 716 пикселей
Высота : 550 пикселей
Соотношение сторон : 1,85:1
Режим частоты кадров : Постоянный
Частота кадров : 25,000 кадров/сек
Цветовое пространство : YUV
Субдискретизация насыщенности : 4:2:0
Битовая глубина : 8 бит
Тип развёртки : Прогрессивная
Бит/(Пиксели*Кадры) : 0.274
Размер потока : 2,38 Гбайт (84%)
Библиотека кодирования : x264 core 148 r2638 7599210
Настройки программы : cabac=1 / ref=14 / deblock=1:-2:-2 / analyse=0x3:0x133 / me=umh / subme=10 / psy=1 / psy_rd=1.05:0.15 / mixed_ref=1 / me_range=32 / chroma_me=1 / trellis=2 / 8x8dct=1 / cqm=0 / deadzone=21,11 / fast_pskip=0 / chroma_qp_offset=-3 / threads=4 / lookahead_threads=1 / sliced_threads=0 / nr=0 / decimate=0 / interlaced=0 / bluray_compat=0 / constrained_intra=0 / bframes=16 / b_pyramid=2 / b_adapt=2 / b_bias=0 / direct=3 / weightb=1 / open_gop=0 / weightp=2 / keyint=250 / keyint_min=25 / scenecut=40 / intra_refresh=0 / rc=2pass / mbtree=0 / bitrate=2700 / ratetol=1.0 / qcomp=0.60 / qpmin=0 / qpmax=69 / qpstep=4 / cplxblur=20.0 / qblur=0.5 / ip_ratio=1.40 / pb_ratio=1.30 / aq=1:1.00
Язык : English
Default : Да
Forced : Нет
Цветовой диапазон : Limited
Основные цвета : BT.601 NTSC
Характеристики трансфера : BT.601
Коэффициенты матрицы : BT.601

Аудио
Идентификатор : 2
Формат : AC-3
Формат/Информация : Audio Coding 3
Расширение режима : CM (complete main)
Параметр Endianness формата : Big
Идентификатор кодека : A_AC3
Продолжительность : 2 ч. 9 м.
Вид битрейта : Постоянный
Битрейт : 448 Кбит/сек
Каналы : 6 каналов
Расположение каналов : Front: L C R, Side: L R, LFE
Частота : 48,0 КГц
Частота кадров : 31,250 кадров/сек (1536 spf)
Метод сжатия : С потерями
Задержка видео : 640 мс.
Размер потока : 415 Мбайт (14%)
Default : Да
Forced : Нет

pb.wtf



Скачать 4 таксиста и собака - 2 через торрент http://s02.radikal.ru/i175/1708/20/e04bf841895a.jpg Скачать фильм 4 таксиста и собака - 2 через торрент бесплантно в хорошем качестве Описание: Захватывающие приключения авантюриста Фигаро продолжаются. Даже став "звездой", неугомонный такс не сидит сложа лапы. Влезая ... 10 10 1
Info! Золотая раздача, скачанное не засчитывается.
Торрент: Зарегистрирован [2017-08-26 11:21] · скачан: 20 раз
Статус: √ проверено
Размер: 2.85 GB
Как cкачать? Как скачать 4 таксиста и собака - 2 через торрент | qTorrent

28-11-2019 20:33  

Отключить всю рекламу на сайте

26-08-2017 11:24 4 таксиста и собака - 2 Скачать торрент  

Топик был перенесен из форума Оформление раздач (Кино, Видео и ТВ) в форум Наши фильмы, до 2010


schultzpb.wtf



    Дорогой пользователь! Огромная просьба, поблагодарите релизера, оцените раздачу и оставьте свои комментарий, если Вы скачали 4 таксиста и собака - 2 через торрент бесплатно! Внесите свою лепту в развитие PiratBit!
    Комментировать посты могут только пользователи прошедшие не сложную регистрацию
    Показать сообщения:    

    4 таксиста и собака - 2 через торрент
    Скачать бесплатно 4 таксиста и собака - 2
    4 таксиста и собака - 2 скачать торрент
    4 таксиста и собака - 2 смотреть онлайн
    Cкачать фильм 4 таксиста и собака - 2 бесплатно
    4 таксиста и собака - 2 скачать торрент в хорошем качестве
    4 таксиста и собака - 2 смотреть онлайн бесплатно в хорошем качестве


    Вы не можете начинать темы
    Вы не можете отвечать на сообщения
    Вы не можете редактировать свои сообщения
    Вы не можете удалять свои сообщения
    Вы не можете голосовать в опросах
    Вы не можете прикреплять файлы к сообщениям
    Вы можете скачивать файлы