Всегда рабочее зеркало без VPN и Proxy просто перед .vidak.icu напиши любое слово или цифру, Пример http://5qcs.vidak.icu

MVO

MVO

1 сезон

1

1 сезон

iTunes

1 сезон

13

1 сезон

Deluxe

pack

Рекомендуем

Repack

30

ВАЖНО

RePack

MK11

RePack

jed

RePack

fifa19

RePack

RDR2

RePack

NEED FOR SPEED™ PAYBACK

Кинопоиск HD

6 сезон

 Острые козырьки 6 сезон

Все сериалы

все сериалы на PB.wtf

RePack

FAR CRY 5
  
Magnet ссылка

Жил-был кот / Rudolf The Black Cat (Микинори Сакакибара, Кунихико Юяма) [2016, мультфильм, комедия, приключения, HDRip] DUB [Официальный звук] pb.wtf

Жил-был кот через торрент pb.wtf

Размер: 1.37 GB | Добавлен: 4 года 11 мес. назад | Торрент скачан:793 раза
Смотреть онлайн Жил-был кот | Скачать    Ребята, помогите собрать деньги на оплату серверов!!!

26-08-2017 12:37 Жил-был кот Скачать торрент  

Жил-был кот / Rudolf The Black Cat (2016) HDRip
«Маленький герой - большие приключения»
Год выпуска: 2016
Страна: Япония, Канада
Жанр: Мультфильм, комедия, приключения
Продолжительность: 01:28:39

Режиссёры: Микинори Сакакибара, Кунихико Юяма
В ролях: Мао Иноуэ, Рёхэй Судзуки, Норито Ясима, Арата Фурута, Сандаю Докумамуси, Нана Мидзуки, Рио Сасаки, Юка Тэрасаки, Акио Оцука

Перевод: Профессиональный (полное дублирование) [Официальный звук]
Субтитры: Отсутствуют

Описание: История маленького чёрного котёнка с гордым именем Рудольф, жившего счастливо и спокойно ровно до тех пор, пока по роковой случайности он не оказался в неизвестном большом городе. Здесь герою придётся выживать без ласки и заботы хозяев, а ведь раньше он был твёрдо убежден, что всегда будет в полной безопасности.

Блуждая по улицам незнакомого города, Рудо встречает взрослого полосатого кота, нагоняющего ужас на всю округу. Он становится для малыша наставником, учит жизни на улице и помогает обрести новых друзей.



Доп. информация: Релиз без рекламы!

Формат: AVI
Качество: HDRip

Видео кодек: XviD
Аудио кодек: AС3
Видео: 720x400 (16:9), 23.976 fps, XviD ~ 2 005 kbps avg, 0.290 bit/pixel
Аудио: AC3, 48 kHz, 2 ch, ~ 192.00 kbps avg

Дата премьеры (мир): 22 июня 2016
Дата премьеры (РФ): 13 июля 2017
General
Complete name : Zhil.byl.kot.2016.D.HDRip.avi
Format : AVI
Format/Info : Audio Video Interleave
File size : 1.37 GiB
Duration : 1 h 28 min
Overall bit rate : 2 206 kb/s
Writing application : VirtualDubMod 1.5.10.3 | www.virtualdub-fr.org || (build 2550/release)
Writing library : VirtualDubMod build 2550/release

Video
ID : 0
Format : MPEG-4 Visual
Format profile : Advanced [email protected]
Format settings, BVOP : 2
Format settings, QPel : No
Format settings, GMC : No warppoints
Format settings, Matrix : Default (MPEG)
Codec ID : XVID
Codec ID/Hint : XviD
Duration : 1 h 28 min
Bit rate : 2 005 kb/s
Width : 720 pixels
Height : 400 pixels
Display aspect ratio : 16:9
Frame rate : 23.976 (24000/1001) FPS
Color space : YUV
Chroma subsampling : 4:2:0
Bit depth : 8 bits
Scan type : Progressive
Compression mode : Lossy
Bits/(Pixel*Frame) : 0.290
Stream size : 1.24 GiB (91%)
Writing library : XviD 1.2.1 (UTC 2008-12-04)

Audio
ID : 1
Format : AC-3
Format/Info : Audio Coding 3
Format settings, Endianness : Big
Codec ID : 2000
Duration : 1 h 28 min
Bit rate mode : Constant
Bit rate : 192 kb/s
Channel(s) : 2 channels
Channel positions : Front: L R
Sampling rate : 48.0 kHz
Frame rate : 31.250 FPS (1536 SPF)
Bit depth : 16 bits
Compression mode : Lossy
Stream size : 122 MiB (9%)
Alignment : Split accross interleaves
Interleave, duration : 42 ms (1.00 video frame)
Interleave, preload duration : 500 ms
Service kind : Complete Main
Скриншоты:

скриншот  скриншот  скриншот  скриншот  скриншот  
pb.wtf



Скачать Жил-был кот через торрент http://i94.fastpic.ru/big/2017/0826/df/82e49b9c1832adf950a01b87b50b37df.png Скачать, смотреть онлайн Жил-был кот бесплантно в хорошем качестве Описание: История маленького чёрного котёнка с гордым именем Рудольф, жившего счастливо и спокойно ровно до тех пор, пока по роковой ... 8.6 10 10
Info! Золотая раздача, скачанное не засчитывается.
Торрент: Зарегистрирован [2017-08-26 12:37] · скачан: 793 раз
Статус: √ проверено
Размер: 1.37 GB
Как cкачать? Как скачать Жил-был кот через торрент | UTorrent

% Раздел Тема Автор DL S | L
Зарубежные Мультфильмы (WEB-DL 720p, 1080p) [ 2.68 GB ] Жил-был кот / Rudorufu to ippai attena / Rudolf The Black Cat [2016 WEB-DL 720p] [Локализованный видеоряд] killermax2013 Скачать
1 | 0
T Зарубежные Мультфильмы (BDRip 1080p, 720p, Blu-ray, BD-Remux) [ 8.97 GB ] Жил-был кот / Rudorufu to ippai attena / Rudolf The Black Cat [2016 BDRip 1080p] killermax2013 Скачать
1 | 0

28-11-2019 20:33  

Отключить вcю реклaмy на сайте

26-08-2017 18:26 Жил-был кот Скачать торрент  

оценки сломалисьpb.wtf



    Дорогой пользователь! Огромная просьба, поблагодарите релизера, оцените раздачу и оставьте свои комментарий, если Вы скачали Жил-был кот через торрент бесплатно!
    Комментировать посты могут только пользователи прошедшие не сложную регистрацию
    Показать сообщения:    

    Жил-был кот через торрент
    Скачать бесплатно Жил-был кот
    Жил-был кот скачать торрент
    Жил-был кот смотреть онлайн
    Cкачать фильм Жил-был кот бесплатно
    Жил-был кот скачать торрент в хорошем качестве
    Жил-был кот смотреть онлайн бесплатно в хорошем качестве


    Вы не можете начинать темы
    Вы не можете отвечать на сообщения
    Вы не можете редактировать свои сообщения
    Вы не можете удалять свои сообщения
    Вы не можете голосовать в опросах
    Вы не можете прикреплять файлы к сообщениям
    Вы можете скачивать файлы