новый адрес
Ссылка на приватное зеркало всего за 1$. Внимание количество ограничено!!!

iTunes

1+1

iTunes

мы

WEB-DL

1

iTunes

Чернобыль

iTunes

Ральф против интернета

Лицензия

ПШазам

Лицензия

Оно 2

Лицензия

30
pack

Вам бонус

ВАЖНО

!!Акция!!

Alien_RageХит недели

RePack

Resident Evil 21

ИГРА 18+

pack

RePack

jed

!!Акция!!

Alien_Rage

RePack

fifa19

RePack

Assassins Creed: Odyssey

RePack

NEED FOR SPEED™ PAYBACK

3 сезон

9 сезон

Бесстыжие 9 сезон

Все сериалы

все сериалы на PB.wtf

RePack

FAR CRY 5
Ребята, катастрофически не хватает 1900р. для оплаты серверов за Октябрь (всвязи с блокировками трафик упал в 3 раза), 1-2р., выручайте.
  

Зелёная миля / The Green Mile (Фрэнк Дарабонт) [1999 г., фэнтези, драма, криминал, детектив, BDRip] DUB [Мосфильм-Мастер] + MVO+ [Original] pb.wtf

Зелёная миля через торрент pb.wtf

Размер: 3.66 GB | Добавлен: 2 года 3 мес. назад | Торрент скачан:6 раз
Скачать  

27-08-2017 12:29 Зелёная миля Скачать торрент  

Зелёная миля / The Green Mile
Год выпуска: 1999
Страна: США
Жанр: фэнтези, драма, криминал, детектив
Продолжительность: 03:08:35
Перевод: профессиональный (полное дублирование) «Мосфильм-Мастер»
Субтитры: русские (3 вида), английские (2 вида) (внешние *.srt) | в папке раздачи
Режиссер: Фрэнк Дарабонт
Продюсер: Фрэнк Дарабонт, Дэвид Валдес
Сценарий: Фрэнк Дарабонт, Стивен Кинг
Бюджет: $60 000 000
Премьера в мире: 6 декабря 1999

rating
В ролях: Том Хэнкс, Дэвид Морс, Майкл Кларк Дункан, Бонни Хант, Джеймс Кромуэлл, Майкл Джитер, Грэм Грин, Даг Хатчисон, Сэм Рокуэлл, Барри Пеппер

Роли дублировали: Всеволод Кузнецов, Владимир Антоник, Валентин Голубенко, Любовь Германова, Александр Белявский, Дмитрий Полонский, Александр Коврижных, Борис Шувалов, Андрей Градов, Олег Вирозуб, Юрий Маляров, Лариса Некипелова, Борис Токарев, Всеволод Абдулов
Описание: Обвиненный в страшном преступлении, Джон Коффи оказывается в блоке смертников тюрьмы «Холодная гора». Вновь прибывший обладал поразительным ростом и был пугающе спокоен, что, впрочем, никак не влияло на отношение к нему начальника блока Пола Эджкомба, привыкшего исполнять приговор.

Гигант удивил всех позже, когда выяснилось, что он обладает невероятной магической силой…
Дополнительные аудиодорожки (отдельно):
+ Профессиональный (многоголосый закадровый)
+ Оригинал (английский)
Качество: BDRip
Формат: AVI
Видео кодек: XviD
Аудио кодек: AC3
Видео: 704x400 (16:9), 23.976 fps, XviD MPEG-4 ~1811 kbps avg, 0.268 bit/pixel
Аудио#1: 48 kHz, AC3 Dolby Digital, 3/2 (L,C,R,l,r) + LFE ch, ~384 kbps | DUB «Мосфильм-Мастер»
Аудио#2: 48 kHz, AC3 Dolby Digital, 2/0 (L,R) ch, ~192 kbps | MVO
Аудио#3: 48 kHz, AC3 Dolby Digital, 3/2 (L,C,R,l,r) + LFE ch, ~384 kbps | ENG


General
Complete name : D:\Мои рипы\Зелёная.миля.1999.BDRip.XviD.AC3.by_anton210896\Зелёная.миля.1999.BDRip.XviD.AC3.by_anton210896.avi
Format : AVI
Format/Info : Audio Video Interleave
Format profile : OpenDML
File size : 2.90 GiB
Duration : 3 h 8 min
Overall bit rate : 2 205 kb/s
Writing application : VirtualDubMod 1.5.10.3 | www.virtualdub-fr.org || (build 2550/release)
Writing library : VirtualDubMod build 2550/release

Video
ID : 0
Format : MPEG-4 Visual
Format profile : Advanced Simple@L5
Format settings, BVOP : 1
Format settings, QPel : No
Format settings, GMC : No warppoints
Format settings, Matrix : Default (MPEG)
Codec ID : XVID
Codec ID/Hint : XviD
Duration : 3 h 8 min
Bit rate : 1 811 kb/s
Width : 704 pixels
Height : 400 pixels
Display aspect ratio : 16:9
Frame rate : 23.976 (24000/1001) FPS
Original frame rate : 23.976 (23976/1000) FPS
Color space : YUV
Chroma subsampling : 4:2:0
Bit depth : 8 bits
Scan type : Progressive
Compression mode : Lossy
Bits/(Pixel*Frame) : 0.268
Stream size : 2.39 GiB (82%)
Writing library : XviD 1.2.1 (UTC 2008-12-04)

Audio
ID : 1
Format : AC-3
Format/Info : Audio Coding 3
Format settings, Endianness : Big
Codec ID : 2000
Duration : 3 h 8 min
Bit rate mode : Constant
Bit rate : 384 kb/s
Channel(s) : 6 channels
Channel positions : Front: L C R, Side: L R, LFE
Sampling rate : 48.0 kHz
Frame rate : 31.250 FPS (1536 SPF)
Bit depth : 16 bits
Compression mode : Lossy
Stream size : 518 MiB (17%)
Alignment : Split accross interleaves
Interleave, duration : 42 ms (1.00 video frame)
Interleave, preload duratio : 500 ms
Service kind : Complete Main

pb.wtf



Скачать Зелёная миля через торрент http://funkyimg.com/i/2wMo1.jpg Скачать фильм Зелёная миля через торрент бесплантно в хорошем качестве Описание: Обвиненный в страшном преступлении, Джон Коффи оказывается в блоке смертников тюрьмы «Холодная гора». Вновь прибывший обладал ... 10 10 3
Торрент: Зарегистрирован [2017-08-27 13:00] · скачан: 6 раз
Статус: √ проверено
Размер: 3.66 GB
Как cкачать? Как скачать Зелёная миля через торрент | qTorrent

% Раздел Тема Автор DL S | L
Фильмы (Blu-ray, BD-Remux, HDDVD) [ 59.68 GB ] Зеленая миля / The Green Mile [1999 BD Remux 1080p] 4xAVO+MVO +DUB bober100 Скачать
1 | 0
Фильмы до 2000 г. [ 2.9 GB ] Зеленая миля / Green Mile The [1999 ... BDRip] Anonymous Скачать
1 | 0
Фильмы до 2000 г. [ 1.45 GB ] Зелёная миля / The Green Mile [1999 BDRip-AVC] Dub dexter lex Скачать
3 | 0
Фильмы до 2000 г. [ 3.16 GB ] Зелёная миля / The Green Mile [1999 HDRip] 2x[AVO] + killermax2013 Скачать
1 | 0
Фильмы [HD 720p, 1080p] (Хороший звук DUB, MVO) [ 18.57 GB ] Зелёная миля / The Green Mile [1999 BDRip 1080p] diletant Скачать
1 | 0
Фильмы до 2000 г. [ 2.9 GB ] Зеленая миля / The Green Mile / 1999 / BDRip maygli Скачать
1 | 0
Фильмы (Blu-ray, BD-Remux, HDDVD) [ 32.16 GB ] Зелёная миля / The Green Mile [1999 BD-Remux] DUB + MVO + AVO + Original + Commentary + SUB Eng) shuller Скачать
1 | 0


Последний раз редактировалось: anton210896 (2017-08-27 15:30), всего редактировалось 2 раз(а)

28-11-2019 20:33  

Отключить всю рекламу на сайте


27-08-2017 15:21 Зелёная миля Скачать торрент  

очень стоящий фильм и книга.
pb.wtf



27-08-2017 15:24 Зелёная миля Скачать торрент  

kentbes, согласен! Я его три раза пересматривал, концовка, правда, грустная, еле слёз выдержал!pb.wtf



27-08-2017 15:39 Зелёная миля Скачать торрент  

Топик был перенесен из форума Оформление раздач (Кино, Видео и ТВ) в форум Фильмы до 2000 г.


schultzpb.wtf



28-08-2017 06:17 Зелёная миля Скачать торрент  

Фильм возможно завтра дораздам! Потому что мне надо по делам к бабушке, а мне ноутбук нужен!pb.wtf



28-09-2018 16:30 Зелёная миля Скачать торрент  

Безусловный шедевр + один из лучших фильмов по Кингу. Смотреть обязательно, 10 из 10!pb.wtf



    Дорогой пользователь! Огромная просьба, поблагодарите релизера, оцените раздачу и оставьте свои комментарий, если Вы скачали Зелёная миля через торрент бесплатно! Внесите свою лепту в развитие PiratBit!
    Комментировать посты могут только пользователи прошедшие не сложную регистрацию
    Показать сообщения:    

    Зелёная миля через торрент
    Скачать бесплатно Зелёная миля
    Зелёная миля скачать торрент
    Зелёная миля смотреть онлайн
    Cкачать фильм Зелёная миля бесплатно
    Зелёная миля скачать торрент в хорошем качестве
    Зелёная миля смотреть онлайн бесплатно в хорошем качестве


    Вы не можете начинать темы
    Вы не можете отвечать на сообщения
    Вы не можете редактировать свои сообщения
    Вы не можете удалять свои сообщения
    Вы не можете голосовать в опросах
    Вы не можете прикреплять файлы к сообщениям
    Вы можете скачивать файлы