2 сезон

iTunes

MVO

1

2 сезон

iTunes

iTunes

1 сезон

RePack

30

Новинка

ВАЖНО

ИГРА 18+

pack

RePack

MK11
pack

Легкие деньги

RePack

jed

RePack

fifa19

RePack

RDR2

RePack

NEED FOR SPEED™ PAYBACK

4 сезон

9 сезон

Бесстыжие 9 сезон

Все сериалы

все сериалы на PB.wtf

RePack

FAR CRY 5

Anonymous, добрый вечер, мы не успеваем собрать деньги на оплату серверов за декабрь и январь, помогите нам пожалуйста в это трудное время. В качестве благодарности мы отключим Вам всю рекламу на сайте (укажите свой ник в строку Ваше имя)!

×
  
Magnet ссылка

Очень плохие девчонки / Rough Night (Люсия Аньелло) [2017, комедия, BDRip-AVC] DUB [iTunes] Generalfilm pb.wtf

Очень плохие девчонки через торрент pb.wtf

Раздают: 3 [ 0 KB/s ]
Размер: 1.43 GB | Добавлен: 3 года 4 мес. назад | Торрент скачан:2325 раз
Скачать  

27-08-2017 13:12 Очень плохие девчонки Скачать торрент  

Очень плохие девчонки / Rough Night
«Подруга подкинула проблем»
Год выпуска : 2017
Страна: США / Paulilu Productions, Sony Pictures Entertainment (SPE)
Жанр: комедия
Режиссер: Люсия Аньелло / Lucia Aniello

Продолжительность: 01:40:50
Перевод: Дублированный [iTunes]
Субтитры: Русские (forced,full)
В ролях:
Скарлетт Йоханссон, Джиллиан Белл, Зои Кравиц, Илана Глейзер, Кейт МакКиннон, Пол В. Даунс, Райан Купер, Тай Буррелл, Деми Мур, Энрике Мурсиано
Описание:Что может омрачить развеселый и безбашенный девичник в Майами? Наверное, только нелепая смерть стриптизера. Теперь подружкам предстоит выпутаться из дурацкой истории и как-то замести следы, пока они не попали в руки к копам.
Рейтинг:
Качество: BDRip-AVC
Формат: MKV
Видео: AVC, 1024x428 (2.40:1), 1638 kbps (0.156 b/px), 23.98 fps
Аудио: AC3, 384 kbps (CBR), 48.0 KHz (16 bits), 6 ch, Russian - DUB (iTunes)
Субтитры: Russian.UTF-8 (Forced), Russian.UTF-8 (Full)
Навигация по главам: есть
General
Unique ID : 201752455532152245402149825958919619826 (0x97C81C0B39FB2BE19F38D656D5B144F2)
Complete name : E:\Rough Night.2017.BDRip-AVC.Rip.by.White Smoke.R.G.Generalfilm.mkv
Format : Matroska
Format version : Version 4 / Version 2
File size : 1.43 GiB
Duration : 1h 40mn
Overall bit rate : 2 024 Kbps
Movie name : Rough Night.2017.BDRip-AVC.Rip.by.White Smoke.R.G.Generalfilm.mkv
Encoded date : UTC 2017-08-27 11:21:50
Writing application : mkvmerge v6.8.0 ('Theme for Great Cities') 64bit built on Mar 2 2014 21:34:26
Writing library : libebml v1.3.0 + libmatroska v1.4.1

Video
ID : 1
Format : AVC
Format/Info : Advanced Video Codec
Format profile : High@L4.1
Format settings, CABAC : Yes
Format settings, ReFrames : 12 frames
Codec ID : V_MPEG4/ISO/AVC
Duration : 1h 40mn
Bit rate : 1 638 Kbps
Width : 1 024 pixels
Height : 428 pixels
Display aspect ratio : 2.40:1
Frame rate mode : Constant
Frame rate : 23.976 fps
Color space : YUV
Chroma subsampling : 4:2:0
Bit depth : 8 bits
Scan type : Progressive
Bits/(Pixel*Frame) : 0.156
Stream size : 1.13 GiB (79%)
Writing library : x264 core 148 r2638 7599210
Encoding settings : cabac=1 / ref=12 / deblock=1:-1:-2 / analyse=0x3:0x113 / me=umh / subme=11 / psy=1 / psy_rd=1.00:0.14 / mixed_ref=1 / me_range=32 / chroma_me=1 / trellis=2 / 8x8dct=1 / cqm=0 / deadzone=21,11 / fast_pskip=0 / chroma_qp_offset=-5 / threads=6 / lookahead_threads=1 / sliced_threads=0 / nr=0 / decimate=0 / interlaced=0 / bluray_compat=0 / constrained_intra=0 / bframes=10 / b_pyramid=2 / b_adapt=2 / b_bias=10 / direct=1 / weightb=0 / open_gop=0 / weightp=2 / keyint=240 / keyint_min=23 / scenecut=40 / intra_refresh=0 / rc_lookahead=40 / rc=2pass / mbtree=1 / bitrate=1638 / ratetol=1.0 / qcomp=0.70 / qpmin=0 / qpmax=69 / qpstep=4 / cplxblur=20.0 / qblur=0.5 / vbv_maxrate=50000 / vbv_bufsize=65500 / nal_hrd=none / filler=0 / ip_ratio=1.40 / aq=1:1.00
Default : Yes
Forced : No

Audio
ID : 2
Format : AC-3
Format/Info : Audio Coding 3
Mode extension : CM (complete main)
Format settings, Endianness : Big
Codec ID : A_AC3
Duration : 1h 40mn
Bit rate mode : Constant
Bit rate : 384 Kbps
Channel(s) : 6 channels
Channel positions : Front: L C R, Side: L R, LFE
Sampling rate : 48.0 KHz
Bit depth : 16 bits
Compression mode : Lossy
Stream size : 277 MiB (19%)
Title : DUB (iTunes)
Language : Russian
Default : Yes
Forced : No

Text #1
ID : 3
Format : UTF-8
Codec ID : S_TEXT/UTF8
Codec ID/Info : UTF-8 Plain Text
Title : Forced
Language : Russian
Default : Yes
Forced : No

Text #2
ID : 4
Format : UTF-8
Codec ID : S_TEXT/UTF8
Codec ID/Info : UTF-8 Plain Text
Title : Full
Language : Russian
Default : No
Forced : No

Menu
00:00:00.000 : en:00:00:00.000
00:04:44.326 : en:00:04:44.326
00:08:05.276 : en:00:08:05.276
00:15:19.210 : en:00:15:19.210
00:25:46.295 : en:00:25:46.295
00:34:27.023 : en:00:34:27.023
00:39:51.264 : en:00:39:51.264
00:43:11.088 : en:00:43:11.088
00:46:26.617 : en:00:46:26.617
00:49:09.530 : en:00:49:09.530
00:53:44.179 : en:00:53:44.179
00:59:37.657 : en:00:59:37.657
01:02:53.937 : en:01:02:53.937
01:11:56.646 : en:01:11:56.646
01:22:55.679 : en:01:22:55.679
01:30:58.328 : en:01:30:58.328
скриншот   скриншот   скриншот   скриншот   скриншот   скриншот   скриншот  
pb.wtf



Скачать Очень плохие девчонки через торрент http://i93.fastpic.ru/big/2017/0827/48/273fe6f8629d9403d758870e428e2a48.jpg Скачать фильм Очень плохие девчонки через торрент бесплантно в хорошем качестве Описание:Что может омрачить развеселый и безбашенный девичник в Майами? Наверное, только нелепая смерть стриптизера. Теперь подружкам ... 9.2 10 36
Info! Золотая раздача, скачанное не засчитывается.
Торрент: Зарегистрирован [2017-08-27 13:12] · скачан: 2 325 раз
Статус: √ проверено
Размер: 1.43 GB
Как cкачать? Как скачать Очень плохие девчонки через торрент | UTorrent

28-11-2019 20:33  

Отключить всю рекламу на сайте

27-08-2017 22:04 Очень плохие девчонки Скачать торрент  

Рейтинг на imdb указан на другой фильм..
рейтинг фильма pb.wtf
K-Lexx- писал(а):

Спасибо, поправил.



03-09-2017 12:13 Очень плохие девчонки Скачать торрент  

судя по трейлеру, ожидал большегоpb.wtf



    Дорогой пользователь! Огромная просьба, поблагодарите релизера, оцените раздачу и оставьте свои комментарий, если Вы скачали Очень плохие девчонки через торрент бесплатно! Внесите свою лепту в развитие PiratBit!
    Комментировать посты могут только пользователи прошедшие не сложную регистрацию
    Показать сообщения:    

    Очень плохие девчонки через торрент
    Скачать бесплатно Очень плохие девчонки
    Очень плохие девчонки скачать торрент
    Очень плохие девчонки смотреть онлайн
    Cкачать фильм Очень плохие девчонки бесплатно
    Очень плохие девчонки скачать торрент в хорошем качестве
    Очень плохие девчонки смотреть онлайн бесплатно в хорошем качестве


    Вы не можете начинать темы
    Вы не можете отвечать на сообщения
    Вы не можете редактировать свои сообщения
    Вы не можете удалять свои сообщения
    Вы не можете голосовать в опросах
    Вы не можете прикреплять файлы к сообщениям
    Вы можете скачивать файлы