Ссылка на приватное зеркало нашего сайта всего за 1$. Внимание количество ограничено!!!

2 сезон

iTunes

1 сезон

1

2 сезон

2 сезон

iTunes

1 сезон

RePack

30

Ultimate

ВАЖНО

ИГРА 18+

pack

RePack

MK11
pack

Забери бонус

RePack

jed

!!Акция!!

Alien_Rage

RePack

fifa19

RePack

Assassins Creed: Odyssey

RePack

NEED FOR SPEED™ PAYBACK

4 сезон

9 сезон

Бесстыжие 9 сезон

Все сериалы

все сериалы на PB.wtf

RePack

FAR CRY 5
  

Раскосяченные / Disjointed / Сезон: 1 / Серии 1-20 из 20 (Ричи Кин, Джеймс Берроуз, Гай Дистад) [2017 г., комедия, WEBRip 720p] MVO [BaibaKo] pb.wtf

Раскосяченные через торрент pb.wtf

Размер: 17.99 GB | Добавлен: 2 года 10 мес. назад | Торрент скачан:32 раза
Скачать  

28-08-2017 01:27 Раскосяченные Скачать торрент  

Раскосяченные / Disjointed

  • Год выпуска: 2017
  • Страна: США
  • Жанр: комедия
  • Продолжительность: ~ 00:30:00 (Серия)
  • Перевод: Профессиональный многоголосый [BaibaKo]
  • Режиссер: Ричи Кин, Джеймс Берроуз, Гай Дистад
  • В ролях:
    Аарон Мотен, Тони Белл, Дуги Болдуин, Элизабет Альдерфер, Кэти Бейтс, Элизабет Хо, Бетси Содаро, Крис Редд, Николь Салливан, Майкл Трукко и др.


  • Создатель «Теории большого взрыва» Чак Лорри объединился с Дэвидом Джейвербаумом, бывшим сценаристом Леттермана и Колбера, чтобы создать новый комедийный сериал для Netflix. Главная героиня в исполнении оскаровской лауреатки Кэти Бейтс долго боролась за легализацию марихуаны. И вот теперь, когда ее активность принесла плоды, она набрала себе персонал и на радостях открыла калифорнийский пункт по выдаче ганджубаса. Осторожно: в сериале о буднях честных травоторговцев курить будут все и постоянно!
  • Рейтинг:

    rating
  • Качество: WEBRip 720p
  • Формат: MKV
  • Видео кодек: AVC
  • Аудио кодек: AC3
  • Видео: 4290 Кбит/сек, 1280*720 (16:9), в 23,976 (23976/1000) кадра/сек, AVC
  • Аудио#1: Русский 384 Кбит/сек, 48,0 КГц, 16 бит, 6 каналов, AC-3 |[BaibaKo]|
  • Аудио#2: Английский 384 Кбит/сек, 48,0 КГц, 16 бит, 6 каналов, AC-3
  • Релиз от: GEKADOL



    Общее
    Уникальный идентификатор : 238189932491181456916064554793528098423 (0xB331B65C2703C963BF0DB46C6C9A7E77)
    Полное имя : F:\Раскосяченные (Disjointed)\Disjointed.s01e01.HD720p.WEBRip.Rus.Eng.BaibaKo.tv.mkv
    Формат : Matroska
    Версия формата : Version 4 / Version 2
    Размер файла : 981 Мбайт
    Продолжительность : 27 м. 5 с.
    Режим общего битрейта : Переменный
    Общий поток : 5060 Кбит/сек
    Дата кодирования : UTC 2017-08-28 01:08:49
    Программа кодирования : mkvmerge v12.0.0 ('Trust / Lust') 64bit
    Библиотека кодирования : libebml v1.3.4 + libmatroska v1.4.5

    Видео
    Идентификатор : 1
    Формат : AVC
    Формат/Информация : Advanced Video Codec
    Профиль формата : Main@L3.1
    Параметр CABAC формата : Да
    Параметр RefFrames формата : 3 кадра
    Идентификатор кодека : V_MPEG4/ISO/AVC
    Продолжительность : 27 м. 5 с.
    Вид битрейта : Переменный
    Битрейт : 4290 Кбит/сек
    Максимальный битрейт : 6330 Кбит/сек
    Ширина : 1280 пикселей
    Высота : 720 пикселей
    Соотношение сторон : 16:9
    Режим частоты кадров : Постоянный
    Частота кадров : 23,976 (23976/1000) кадра/сек
    Частота кадров в оригинале : 23,976 (24000/1001) кадра/сек
    Цветовое пространство : YUV
    Субдискретизация насыщенности : 4:2:0
    Битовая глубина : 8 бит
    Тип развёртки : Прогрессивная
    Бит/(Пиксели*Кадры) : 0.194
    Размер потока : 831 Мбайт (85%)
    Default : Нет
    Forced : Нет

    Аудио #1
    Идентификатор : 2
    Формат : AC-3
    Формат/Информация : Audio Coding 3
    Параметр Endianness формата : Big
    Идентификатор кодека : A_AC3
    Продолжительность : 27 м. 5 с.
    Вид битрейта : Постоянный
    Битрейт : 384 Кбит/сек
    Каналы : 6 каналов
    Расположение каналов : Front: L C R, Side: L R, LFE
    Частота : 48,0 КГц
    Частота кадров : 31,250 кадров/сек (1536 SPF)
    Битовая глубина : 16 бит
    Метод сжатия : С потерями
    Задержка видео : 18 мс.
    Размер потока : 74,4 Мбайт (8%)
    Язык : Russian
    ServiceKind/String : Complete Main
    Default : Да
    Forced : Нет

    Аудио #2
    Идентификатор : 3
    Формат : AC-3
    Формат/Информация : Audio Coding 3
    Параметр Endianness формата : Big
    Идентификатор кодека : A_AC3
    Продолжительность : 27 м. 5 с.
    Вид битрейта : Постоянный
    Битрейт : 384 Кбит/сек
    Каналы : 6 каналов
    Расположение каналов : Front: L C R, Side: L R, LFE
    Частота : 48,0 КГц
    Частота кадров : 31,250 кадров/сек (1536 SPF)
    Битовая глубина : 16 бит
    Метод сжатия : С потерями
    Задержка видео : 28 мс.
    Размер потока : 74,4 Мбайт (8%)
    Язык : English
    ServiceKind/String : Complete Main
    Default : Нет
    Forced : Нет
    Когда раздача ведётся путём добавления новых серий, при каждом добавлении создётся новый торрент. Чтобы начать докачку новой серии, пользователям необходимо сделать следующее:
    (1) остановить скачивание,
    (2) удалить старый торрент у себя из клиента (старые серии удалять не надо),
    (3) скачать новый торрент и запустить его у себя в клиенте вместо старого, при этом указать клиенту путь в старую папку, куда и должно происходить скачивание новых серий.
    Ваш клиент при этом должен произвести хеширование (проверку) старой папки (если не производит сам - помогите ему сделать это), и будет докачивать только те серии, которых у вас ещё нет. Старые серии при этом не удаляются, а продолжают раздаваться!
    Eсли вы уже удалили старые серии, то предотвратить повторную закачку старых серий можно, отжав галочку в соответсвующих местах при запуске нового торрента. По возможности, желательно не удалять старые серии как можно дольше, чтобы релизёр не столько продолжал раздавать старые серии, а смог сконцентрироваться на новых.

    Внимание! В сериале присутствует укуренность и ненормативная лексика!


    Скриншоты:
    скриншот   скриншот   скриншот   скриншот   скриншот   скриншот   скриншот  
    скриншот  

    Раздача ведётся путём добавления новых серий. Добавлена 11-20 серия (15.01.2018).Просьба перекачать торрент файл.

    pb.wtf



  • Скачать Раскосяченные через торрент http://pic1.kartinco.top/images/11/3sg5k.jpg Скачать фильм Раскосяченные через торрент бесплантно в хорошем качестве qw.png Создатель «Теории большого взрыва» Чак Лорри объединился с Дэвидом Джейвербаумом, бывшим сценаристом Леттермана и Колбера, чтобы ... 10 10 6
    Info! Золотая раздача, скачанное не засчитывается.
    Торрент: Зарегистрирован [2018-01-15 06:34] · скачан: 32 раз
    Статус: √ проверено
    Размер: 17.99 GB
    Как cкачать? Как скачать Раскосяченные через торрент | qTorrent

    % Раздел Тема Автор DL S | L
    Зарубежные сериалы [ 30.86 GB ] Раскосяченные / Disjointed / Сезон: 1 / Серии: 1-20 из 20 [2017 WEBRip 1080p] MVO [TVShows] bober100 Скачать
    1 | 0
    Зарубежные сериалы [ 6.61 GB ] Раскосяченные / Disjointed / Сезон: 1 / Серии: 1-20 из 20 [2017 WEBRip] MVO [Good People] bober100 Скачать
    1 | 0
    Зарубежные сериалы [ 16.95 GB ] Раскосяченные / Disjointed / Сезон: 1 / Серии: 1-20 из 20 [2017 WEBRip 720p] MVO [Good People] bober100 Скачать
    1 | 0
    Зарубежные сериалы [ 3.28 GB ] Раскосяченные / Disjointed / Сезон 1 / Серии 1-10 из 10 [2017 WEBRip] MVO [Jaskier] bober100 Скачать
    1 | 0
    Зарубежные сериалы [ 15.87 GB ] Раскосяченные / Disjointed / Сезон 1 / Серии 1-20 из 20 [2017 WEBRip 720p] MVO [Jaskier] bober100 Скачать
    1 | 0
    Зарубежные сериалы [ 13.49 GB ] Раскосяченные / Disjointed / Сезон: 1 / Серии 1-10 из 10 [2017 WEBRip 1080p] [MVO] killermax2013 Скачать
    1 | 0

    28-11-2019 20:33  

    Отключить всю рекламу на сайте

      Дорогой пользователь! Огромная просьба, поблагодарите релизера, оцените раздачу и оставьте свои комментарий, если Вы скачали Раскосяченные через торрент бесплатно! Внесите свою лепту в развитие PiratBit!
      Комментировать посты могут только пользователи прошедшие не сложную регистрацию
      Показать сообщения:    

      Раскосяченные через торрент
      Скачать бесплатно Раскосяченные
      Раскосяченные скачать торрент
      Раскосяченные смотреть онлайн
      Cкачать фильм Раскосяченные бесплатно
      Раскосяченные скачать торрент в хорошем качестве
      Раскосяченные смотреть онлайн бесплатно в хорошем качестве


      Вы не можете начинать темы
      Вы не можете отвечать на сообщения
      Вы не можете редактировать свои сообщения
      Вы не можете удалять свои сообщения
      Вы не можете голосовать в опросах
      Вы не можете прикреплять файлы к сообщениям
      Вы можете скачивать файлы