Ссылка на приватное зеркало нашего сайта всего за 1$. Внимание количество ограничено!!!

2 сезон

iTunes

1 сезон

1

2 сезон

2 сезон

iTunes

1 сезон

RePack

30

Новинка

ВАЖНО

ИГРА 18+

pack

RePack

MK11
pack

Забери бонус

RePack

jed

!!Акция!!

Alien_Rage

RePack

fifa19

RePack

Assassins Creed: Odyssey

RePack

NEED FOR SPEED™ PAYBACK

4 сезон

9 сезон

Бесстыжие 9 сезон

Все сериалы

все сериалы на PB.wtf

RePack

FAR CRY 5
  

Механик: Воскрешение / Mechanic: Resurrection (Дэннис Ганзель) [2016, Боевик, триллер, криминал, BD Remux 1080p] [Лицензия] DUB+AVO pb.wtf

Механик: Воскрешение через торрент pb.wtf

Размер: 31.42 GB | Добавлен: 3 года 3 мес. назад | Торрент скачан:27 раз
Скачать  

28-08-2017 10:56 Механик: Воскрешение Скачать торрент  

Механик: Воскрешение / Mechanic: ResurrectionГод выпуска: 2016
Страна: Франция, США
Жанр: Боевик, триллер, криминал
Продолжительность: 01:38:39

Перевод:

#1: Дублированный | Лицензия
#2: Авторский | М. Яроцкий

Субтитры: Русские (forced, full), английские

Режиссер: Дэннис Ганзель

rating

В ролях:

Джейсон Стэйтем, Джессика Альба, Томми Ли Джонс, Мишель Йео, Наталия Гуслистая, Ейяинг Рхатха Пхонгам, Сэм Хэзелдайн, Джон Ченатьемпо, Райчо Василев, Аарон Брамфилд

Описание:

Артура Бишопа, давно оставившего свое криминальное ремесло, вынуждают снова вступить в игру. Чтобы похитители вернули его возлюбленную, он должен сделать то, что у него получается лучше всего: от него требуется совершить три убийства, идеально обставленных как несчастные случаи.

Качество: BD Remux 1080p
Формат: MKV
Видео кодек: H.264
Аудио кодек: AC3/DTS

Видео: 1920x1080, 33.9 Mbit/s, 23.976 fps
Аудио#1: 48 kHz, AC3, 5.1, 640 Kbps | Дублированный | RUS |
Аудио#2: 48 kHz, DTS-HD MA, 7.1, 5612 Kbps | Авторский | RUS |
Аудио#3: 48 kHz, TrueHD, 7.1, 5351 kbps | Оригинал | ENG |
скриншот   скриншот   скриншот   скриншот   скриншот  

General
Unique ID : 188673758034994199630852753237659744584 (0x8DF13E78E1043AABB3579CE0A43DF948)
Complete name : F:VideoMechanic.Resurrection.2016.BDREMUX.1080p.ExKinoRay.mkv
Format : Matroska
Format version : Version 4 / Version 2
File size : 31.4 GiB
Duration : 1 h 38 min
Overall bit rate mode : Variable
Overall bit rate : 45.6 Mb/s
Encoded date : UTC 2017-03-10 12:06:26
Writing application : mkvmerge v8.3.0 ('Over the Horizon') 64bit
Writing library : libebml v1.3.1 + libmatroska v1.4.2

Video
ID : 1
Format : AVC
Format/Info : Advanced Video Codec
Format profile : High@L4.1
Format settings, CABAC : Yes
Format settings, ReFrames : 4 frames
Codec ID : V_MPEG4/ISO/AVC
Duration : 1 h 38 min
Bit rate mode : Variable
Bit rate : 33.9 Mb/s
Maximum bit rate : 36.0 Mb/s
Width : 1 920 pixels
Height : 1 080 pixels
Display aspect ratio : 16:9
Frame rate mode : Constant
Frame rate : 23.976 (24000/1001) FPS
Color space : YUV
Chroma subsampling : 4:2:0
Bit depth : 8 bits
Scan type : Progressive
Bits/(Pixel*Frame) : 0.682
Stream size : 23.4 GiB (74%)
Language : English
Default : Yes
Forced : No

Audio #1
ID : 2
Format : AC-3
Format/Info : Audio Coding 3
Mode extension : CM (complete main)
Format settings, Endianness : Big
Codec ID : A_AC3
Duration : 1 h 38 min
Bit rate mode : Constant
Bit rate : 640 kb/s
Channel(s) : 6 channels
Channel positions : Front: L C R, Side: L R, LFE
Sampling rate : 48.0 kHz
Frame rate : 31.250 FPS (1536 spf)
Bit depth : 16 bits
Compression mode : Lossy
Stream size : 451 MiB (1%)
Title : Dub [License]
Language : Russian
Default : Yes
Forced : No

Audio #2
ID : 3
Format : DTS
Format/Info : Digital Theater Systems
Format profile : MA / Core
Mode : 16
Format settings, Endianness : Big
Codec ID : A_DTS
Duration : 1 h 38 min
Bit rate mode : Variable / Constant
Bit rate : 5 612 kb/s / 1 509 kb/s
Channel(s) : 8 channels / 6 channels
Channel positions : Front: L C R, Side: L R, Back: L R, LFE / Front: L C R, Side: L R, LFE
Sampling rate : 48.0 kHz
Frame rate : 93.750 FPS (512 spf)
Bit depth : 24 bits
Compression mode : Lossless / Lossy
Stream size : 3.87 GiB (12%)
Title : AVO [Яроцкий]
Language : Russian
Default : No
Forced : No

Audio #3
ID : 4
Format : Atmos / TrueHD
Codec ID : A_TRUEHD
Duration : 1 h 38 min
Bit rate mode : Variable
Bit rate : 5 351 kb/s
Maximum bit rate : 7 938 kb/s
Channel(s) : Object Based / 8 channels
Channel positions : Object Based / Front: L C R, Side: L R, Back: L R, LFE
Sampling rate : / 48.0 kHz
Frame rate : 1 200.000 FPS (40 spf)
Compression mode : Lossless
Delay relative to video : 1 ms
Stream size : 3.69 GiB (12%)
Title : Original
Language : English
Default : No
Forced : No

Text #1
ID : 5
Format : UTF-8
Codec ID : S_TEXT/UTF8
Codec ID/Info : UTF-8 Plain Text
Duration : 1 h 31 min
Bit rate : 1 b/s
Count of elements : 19
Stream size : 962 Bytes (0%)
Title : Forced
Language : Russian
Default : Yes
Forced : No

Text #2
ID : 6
Format : UTF-8
Codec ID : S_TEXT/UTF8
Codec ID/Info : UTF-8 Plain Text
Duration : 1 h 33 min
Bit rate : 44 b/s
Count of elements : 594
Stream size : 30.6 KiB (0%)
Title : Full
Language : Russian
Default : No
Forced : No

Text #3
ID : 7
Format : UTF-8
Codec ID : S_TEXT/UTF8
Codec ID/Info : UTF-8 Plain Text
Duration : 1 h 30 min
Bit rate : 29 b/s
Count of elements : 631
Stream size : 19.8 KiB (0%)
Title : Full
Language : English
Default : No
Forced : No

Text #4
ID : 8
Format : UTF-8
Codec ID : S_TEXT/UTF8
Codec ID/Info : UTF-8 Plain Text
Duration : 1 h 33 min
Bit rate : 34 b/s
Count of elements : 847
Stream size : 23.8 KiB (0%)
Title : SDH
Language : English
Default : No
Forced : No

Menu
00:00:00.000 : en:00:00:00.000
00:06:34.936 : en:00:06:34.936
00:11:51.336 : en:00:11:51.336
00:18:31.277 : en:00:18:31.277
00:26:04.897 : en:00:26:04.897
00:31:57.540 : en:00:31:57.540
00:38:31.267 : en:00:38:31.267
00:43:35.696 : en:00:43:35.696
00:49:23.210 : en:00:49:23.210
00:54:20.382 : en:00:54:20.382
01:00:09.856 : en:01:00:09.856
01:05:50.446 : en:01:05:50.446
01:10:25.429 : en:01:10:25.429
01:14:52.363 : en:01:14:52.363
01:21:04.860 : en:01:21:04.860
01:31:38.785 : en:01:31:38.785

pb.wtf



Скачать Механик: Воскрешение через торрент http://s008.radikal.ru/i305/1611/1d/38c6ea3e4831.jpg Скачать фильм Механик: Воскрешение через торрент бесплантно в хорошем качестве Описание: Артура Бишопа, давно оставившего свое криминальное ремесло, вынуждают снова вступить в игру. Чтобы похитители вернули его ... 10 10 4
Торрент: Зарегистрирован [2017-08-28 10:56] · скачан: 27 раз
Статус: √ проверено
Размер: 31.42 GB
Как cкачать? Как скачать Механик: Воскрешение через торрент | qTorrent

% Раздел Тема Автор DL S | L
Ultra HD (UHD: 2K, 4K, 8K) — видео сверхвысокой чёткости [ 62.52 GB ] Механик: Воскрешение / Mechanic: Resurrection [2016 UHD BDRemux 2160p] DUB [] +MVO+2xAVO bober100 Скачать
3 | 0
Ultra HD (UHD: 2K, 4K, 8K) — видео сверхвысокой чёткости [ 43.66 GB ] Механик: Воскрешение / Mechanic: Resurrection [2016 UHD WEBRip 2160p] DUB+AVO sheker187 Скачать
1 | 0

28-11-2019 20:33  

Отключить всю рекламу на сайте

    Дорогой пользователь! Огромная просьба, поблагодарите релизера, оцените раздачу и оставьте свои комментарий, если Вы скачали Механик: Воскрешение через торрент бесплатно! Внесите свою лепту в развитие PiratBit!
    Комментировать посты могут только пользователи прошедшие не сложную регистрацию
    Показать сообщения:    

    Механик: Воскрешение через торрент
    Скачать бесплатно Механик: Воскрешение
    Механик: Воскрешение скачать торрент
    Механик: Воскрешение смотреть онлайн
    Cкачать фильм Механик: Воскрешение бесплатно
    Механик: Воскрешение скачать торрент в хорошем качестве
    Механик: Воскрешение смотреть онлайн бесплатно в хорошем качестве


    Вы не можете начинать темы
    Вы не можете отвечать на сообщения
    Вы не можете редактировать свои сообщения
    Вы не можете удалять свои сообщения
    Вы не можете голосовать в опросах
    Вы не можете прикреплять файлы к сообщениям
    Вы можете скачивать файлы