Ссылка на приватное зеркало нашего сайта всего за 1$. Внимание количество ограничено!!!

2 сезон

iTunes

1 сезон

1

2 сезон

2 сезон

iTunes

1 сезон

RePack

30

Новинка

ВАЖНО

ИГРА 18+

pack

RePack

MK11
pack

Забери бонус

RePack

jed

!!Акция!!

Alien_Rage

RePack

fifa19

RePack

Assassins Creed: Odyssey

RePack

NEED FOR SPEED™ PAYBACK

4 сезон

9 сезон

Бесстыжие 9 сезон

Все сериалы

все сериалы на PB.wtf

RePack

FAR CRY 5
  

Обещание / The Promise (Терри Джордж) [2016, Драма, история, BD Remux 1080p] DUB [iTunes] pb.wtf

Обещание через торрент pb.wtf

Размер: 34.57 GB | Добавлен: 3 года 3 мес. назад | Торрент скачан:32 раза
Скачать  

28-08-2017 15:13 Обещание Скачать торрент  

Обещание / The PromiseГод выпуска: 2016
Страна: США
Жанр: Драма, история
Продолжительность: 02:13:07
Перевод: Дублированный | iTunes
Субтитры: английские

Режиссер: Терри Джордж

rating

В ролях:

Кристиан Бэйл, Оскар Айзек, Шоре Агдашлу, Анджела Сарафян, Шарлотта Ле Бон, Джеймс Кромуэлл, Жан Рено, Том Холландер, Нуман Акар, Раде Шербеджия

Описание:

1914 год. Первая Мировая война набирает обороты. Великая Османская империя терпит крах, а Константинополь на глазах погружается в хаос. Студент-медик Микаэль Богосян в городе проездом. Он намерен развивать современную медицину в родной деревне на юге Турции, где турецкие мусульмане и армянские христиане веками мирно живут бок о бок. Фотокорреспондента Криса Майерса в Константинополь привела не столько работа, сколько пламенное чувство к армянской художнице Ане. Микаэль также очарован Аной, но соперничество между мужчинами сходит на нет, когда Империя начинает жестоко преследовать национальные меньшинства. Обещания даются и нарушаются… Но одно нельзя не сдержать - обещание выжить и поведать миру правдивую историю.

Качество: BD Remux 1080p
Формат: MKV
Видео кодек: H.264
Аудио кодек: AC3/DTS-HD MA

Видео: MPEG-4 AVC, 1920x1080, 31.9 Mbit/s, 23.976 fps
Аудио#1: 48 kHz, AC3, 5.1, 384 Kbps | Дублированный | iTunes | RUS |
Аудио#2: 48 kHz, DTS-HD MA, 7.1, 4932 Kbps | Оригинал | ENG |
скриншот   скриншот   скриншот   скриншот   скриншот  

General
Unique ID : 175404772886516642292432192986507196356 (0x83F5BAFEB5A1895380F96442EA7D37C4)
Complete name : F:VideoThe.Promise.2016.BDREMUX.1080p.ExKInoRay.mkv
Format : Matroska
Format version : Version 4 / Version 2
File size : 34.6 GiB
Duration : 2 h 13 min
Overall bit rate mode : Variable
Overall bit rate : 37.2 Mb/s
Encoded date : UTC 2017-07-09 13:51:17
Writing application : mkvmerge v13.0.0 ('The Juggler') 64bit
Writing library : libebml v1.3.4 + libmatroska v1.4.5

Video
ID : 1
Format : AVC
Format/Info : Advanced Video Codec
Format profile : High@L4.1
Format settings, CABAC : Yes
Format settings, ReFrames : 4 frames
Codec ID : V_MPEG4/ISO/AVC
Duration : 2 h 13 min
Bit rate mode : Variable
Bit rate : 31.9 Mb/s
Maximum bit rate : 35.0 Mb/s
Width : 1 920 pixels
Height : 1 080 pixels
Display aspect ratio : 16:9
Frame rate mode : Constant
Frame rate : 23.976 (24000/1001) FPS
Color space : YUV
Chroma subsampling : 4:2:0
Bit depth : 8 bits
Scan type : Progressive
Bits/(Pixel*Frame) : 0.641
Stream size : 29.6 GiB (86%)
Language : English
Default : Yes
Forced : No

Audio #1
ID : 2
Format : AC-3
Format/Info : Audio Coding 3
Format settings, Endianness : Big
Codec ID : A_AC3
Duration : 2 h 13 min
Bit rate mode : Constant
Bit rate : 384 kb/s
Channel(s) : 6 channels
Channel positions : Front: L C R, Side: L R, LFE
Sampling rate : 48.0 kHz
Frame rate : 31.250 FPS (1536 spf)
Bit depth : 16 bits
Compression mode : Lossy
Stream size : 366 MiB (1%)
Title : iTunes
Language : Russian
Service kind : Complete Main
Default : Yes
Forced : No

Audio #2
ID : 3
Format : DTS
Format/Info : Digital Theater Systems
Format profile : MA / Core
Mode : 16
Format settings, Endianness : Big
Codec ID : A_DTS
Duration : 2 h 13 min
Bit rate mode : Variable / Constant
Bit rate : 4 932 kb/s / 1 509 kb/s
Channel(s) : 8 channels / 6 channels
Channel positions : Front: L C R, Side: L R, Back: L R, LFE / Front: L C R, Side: L R, LFE
Sampling rate : 48.0 kHz
Frame rate : 93.750 FPS (512 spf)
Bit depth : 24 bits
Compression mode : Lossless / Lossy
Stream size : 4.59 GiB (13%)
Title : Original
Language : English
Default : No
Forced : No

Text
ID : 4
Format : UTF-8
Codec ID : S_TEXT/UTF8
Codec ID/Info : UTF-8 Plain Text
Duration : 2 h 2 min
Bit rate : 38 b/s
Count of elements : 1143
Stream size : 34.8 KiB (0%)
Language : English
Default : No
Forced : No

Menu
00:00:00.000 : en:Chapter 1
00:04:56.462 : en:Chapter 2
00:12:03.013 : en:Chapter 3
00:16:07.216 : en:Chapter 4
00:21:19.778 : en:Chapter 5
00:28:05.100 : en:Chapter 6
00:37:21.656 : en:Chapter 7
00:43:51.003 : en:Chapter 8
00:48:13.015 : en:Chapter 9
00:54:36.356 : en:Chapter 10
01:02:12.186 : en:Chapter 11
01:11:25.906 : en:Chapter 12
01:25:44.389 : en:Chapter 13
01:29:50.760 : en:Chapter 14
01:34:18.736 : en:Chapter 15
01:42:04.576 : en:Chapter 16
01:46:51.321 : en:Chapter 17
01:52:30.952 : en:Chapter 18
02:01:30.408 : en:Chapter 19
02:05:01.494 : en:Chapter 20

pb.wtf



Скачать Обещание через торрент http://s019.radikal.ru/i643/1707/ee/99f70de127c2.jpg Скачать фильм Обещание через торрент бесплантно в хорошем качестве Описание: 1914 год. Первая Мировая война набирает обороты. Великая Османская империя терпит крах, а Константинополь на глазах погружается в ... 10 10 3
Торрент: Зарегистрирован [2017-08-28 15:13] · скачан: 32 раз
Статус: √ проверено
Размер: 34.57 GB
Как cкачать? Как скачать Обещание через торрент | qTorrent

% Раздел Тема Автор DL S | L
# Фильмы (мультфильмы) cо спонсором показа (Новинки AVI/MKV) [ 4.96 GB ] Обещание / The Promise [2017 BDRip 720p] MVO ["Синема УС] bober100 Скачать
1 | 0
T Фильмы (мультфильмы) cо спонсором показа (Новинки AVI/MKV) [ 1.44 GB ] Обещание / The Promise [2017 HDRip] MVO ["Синема УС] bober100 Скачать
1 | 0
Фильмы без перевода [ 34.23 GB ] Обещание / The Promise [2016 история BDRemux] [Оригинал-ENG] smaster Скачать
1 | 0
Фильмы 2016 [DVDrip, WEB-DLRip, HDrip] (DUB, MVO) [ 2.12 GB ] Обещание / The Promise [2016 история BDRip] - Twi7ter Скачать
1 | 0
Фильмы 2016 [DVDrip, WEB-DLRip, HDrip] (DUB, MVO) [ 1.46 GB ] Обещание / The Promise [2016 история BDRip] - Twi7ter Скачать
1 | 0
Фильмы 2016 [DVDrip, WEB-DLRip, HDrip] (DUB, MVO) [ 1.37 GB ] Обещание / The Promise [2016 история HDRip ] oleg8 Скачать
1 | 0

28-11-2019 20:33  

Отключить всю рекламу на сайте

    Дорогой пользователь! Огромная просьба, поблагодарите релизера, оцените раздачу и оставьте свои комментарий, если Вы скачали Обещание через торрент бесплатно! Внесите свою лепту в развитие PiratBit!
    Комментировать посты могут только пользователи прошедшие не сложную регистрацию
    Показать сообщения:    

    Обещание через торрент
    Скачать бесплатно Обещание
    Обещание скачать торрент
    Обещание смотреть онлайн
    Cкачать фильм Обещание бесплатно
    Обещание скачать торрент в хорошем качестве
    Обещание смотреть онлайн бесплатно в хорошем качестве


    Вы не можете начинать темы
    Вы не можете отвечать на сообщения
    Вы не можете редактировать свои сообщения
    Вы не можете удалять свои сообщения
    Вы не можете голосовать в опросах
    Вы не можете прикреплять файлы к сообщениям
    Вы можете скачивать файлы