2 сезон

iTunes

MVO

1

2 сезон

iTunes

iTunes

1 сезон

RePack

30

Новинка

ВАЖНО

ИГРА 18+

pack

RePack

MK11
pack

Легкие деньги

RePack

jed

RePack

fifa19

RePack

RDR2

RePack

NEED FOR SPEED™ PAYBACK

4 сезон

9 сезон

Бесстыжие 9 сезон

Все сериалы

все сериалы на PB.wtf

RePack

FAR CRY 5

Anonymous, добрый день, мы не успеваем собрать деньги на оплату серверов за декабрь и январь, помогите нам пожалуйста в это трудное время. В качестве благодарности мы отключим Вам всю рекламу на сайте (укажите свой ник в строку Ваше имя)!

×
  
Magnet ссылка

Ад / Die Hölle (Штефан Руцовицки) [2017 г., триллер, WEB-DLRip, Любительский двухголосый (Студия актуального кино)] pb.wtf

Ад через торрент pb.wtf

Размер: 1.45 GB | Добавлен: 3 года 4 мес. назад | Торрент скачан:438 раз
Скачать  

29-08-2017 09:18 Ад Скачать торрент  

Ад / Die Hölle
Год выпуска: 2017
Страна: Германия, Австрия
Жанр: триллер
Продолжительность: 01:31:57
Перевод: Любительский (двухголосый)[Студия актуального кино]
Субтитры: Русские [внешние]

Режиссер: Штефан Руцовицки

rating

В ролях: Виолетта Журавлева, Тобиас Моретти, Роберт Пальфрадер, Сэмми Шейк, Фридрих фон Тун, Муратан Муслу, Верена Альтенбергер, Стеффен Антон, Стефани Буркхард, Дениц Рауниг, Ганс-Мариа Дарнов, Эрика Дётингер, Ким Гиршнер, Райнер Градишниг, Сюзанна Гшвендтнер

Описание: Вена, женщина таксистка — свидетельница убийства в соседней квартире. Но она также замечена убийцей, и её жизнь переворачивается вверх дном. Полиция не поможет ей, но один детектив даёт ей приют...

Доп. информация: Рекламы нет

Качество: WEB-DLRip
Формат: AVI
Видео кодек: XviD
Аудио кодек: AC3
Видео: xvid, 1860 Kbps, 720x304
Аудио#1: Русский : AC3, 2 ch, 192 Kbps
Аудио#2: Немецкий: AC3, 2 ch, 192 Kbps
скриншот   скриншот   скриншот   скриншот  

General
Complete name : H:\релизы.торрентфайл\Die Hölle (2017)\Die Holle.2017.avi
Format : AVI
Format/Info : Audio Video Interleave
Format profile : OpenDML
File size : 1.45 GiB
Duration : 1h 31mn
Overall bit rate : 2 262 Kbps
Writing application : XviD4PSP 6.0 / 54.29.105

Video
ID : 0
Format : xvid
Codec ID : xvid
Duration : 1h 31mn
Bit rate : 1 860 Kbps
Width : 720 pixels
Height : 304 pixels
Display aspect ratio : 2.40:1
Frame rate : 23.976 fps
Bits/(Pixel*Frame) : 0.355
Stream size : 1.19 GiB (82%)

Audio #1
ID : 1
Format : AC-3
Format/Info : Audio Coding 3
Mode extension : CM (complete main)
Format settings, Endianness : Big
Codec ID : 2000
Duration : 1h 31mn
Bit rate mode : Constant
Bit rate : 192 Kbps
Channel(s) : 2 channels
Channel positions : Front: L R
Sampling rate : 44.1 KHz
Bit depth : 16 bits
Compression mode : Lossy
Stream size : 126 MiB (8%)
Alignment : Aligned on interleaves
Interleave, duration : 35 ms (0.83 video frame)

Audio #2
ID : 2
Format : AC-3
Format/Info : Audio Coding 3
Mode extension : CM (complete main)
Format settings, Endianness : Big
Codec ID : 2000
Duration : 1h 31mn
Bit rate mode : Constant
Bit rate : 192 Kbps
Channel(s) : 2 channels
Channel positions : Front: L R
Sampling rate : 48.0 KHz
Bit depth : 16 bits
Compression mode : Lossy
Stream size : 126 MiB (8%)
Alignment : Aligned on interleaves
Interleave, duration : 32 ms (0.77 video frame)

pb.wtf



Скачать Ад через торрент http://i94.fastpic.ru/big/2017/0829/37/6cc0a7bd6ffc8fd709e64def0cf4c037.png Скачать фильм Ад через торрент бесплантно в хорошем качестве Описание: Вена, женщина таксистка — свидетельница убийства в соседней квартире. Но она также замечена убийцей, и её жизнь переворачивается ... 8.5 10 13
Торрент: Зарегистрирован [2017-08-29 09:18] · скачан: 438 раз
Статус: T временная
Размер: 1.45 GB
Как cкачать? Как скачать Ад через торрент | UTorrent

28-11-2019 20:33  

Отключить всю рекламу на сайте

29-08-2017 15:26 Ад Скачать торрент  

Кто смотрел ? Как кино?pb.wtf



    Дорогой пользователь! Огромная просьба, поблагодарите релизера, оцените раздачу и оставьте свои комментарий, если Вы скачали Ад через торрент бесплатно! Внесите свою лепту в развитие PiratBit!
    Комментировать посты могут только пользователи прошедшие не сложную регистрацию
    Показать сообщения:    

    Ад через торрент
    Скачать бесплатно Ад
    Ад скачать торрент
    Ад смотреть онлайн
    Cкачать фильм Ад бесплатно
    Ад скачать торрент в хорошем качестве
    Ад смотреть онлайн бесплатно в хорошем качестве


    Вы не можете начинать темы
    Вы не можете отвечать на сообщения
    Вы не можете редактировать свои сообщения
    Вы не можете удалять свои сообщения
    Вы не можете голосовать в опросах
    Вы не можете прикреплять файлы к сообщениям
    Вы можете скачивать файлы