>

5.6

iTunes

6.1

MVO

5.7

MVO

1

7.4

1 сезон

6.8

iTunes

7.2

1 сезон

13

6.7

1 сезон

8.3

RePack

30

Deluxe

pack

9.9

Лицензия

ВАЖНО

ИГРА 18+

pack

7.3

RePack

MK11

7.7

RePack

jed

7.8

RePack

fifa19

8.5

RePack

RDR2

RePack

NEED FOR SPEED™ PAYBACK

4 сезон

9 сезон

Бесстыжие 9 сезон

Все сериалы

все сериалы на PB.wtf

RePack

FAR CRY 5

Anonymous, добрый день, мы катастрофически не успеваем собрать деньги на оплату серверов, помогите нам пожалуйста 5,10,15р., для нас важна любая помощь . В качестве благодарности мы отключим Вам всю рекламу на сайте (укажите свой ник в строку Ваше имя)!

×
  
Magnet ссылка

Город зажигает огни (Владимир Венгеров) [1958, СССР, драма, SATRip от AVP Studio] pb.wtf

Город зажигает огни через торрент pb.wtf

Размер: 1.09 GB | Добавлен: 4 года назад | Торрент скачан:19 раз
Смотреть онлайн Город зажигает огни | Скачать    Ребята, помогите собрать деньги на оплату серверов!!!

29-08-2017 10:08 Город зажигает огни Скачать торрент  

Город зажигает огни
Страна: СССР
Производство: Ленфильм

Жанр: драма
Год выпуска: 1958
Продолжительность: 01:31:21

Перевод: Не требуется
Cубтитры: нет
Оригинальная аудиодорожка: русский

Режиссер: Владимир Венгеров

В ролях:
Николай Погодин, Елена Добронравова, Олег Борисов, Лилиана Алешникова, Павел Усовниченко, Юрий Любимов, Александр Соколов, Валентин Грудинин, Борис Аракелов, Вячеслав Воронин, Алиса Фрейндлих...
Об актёрах подробней

Описание:
По мотивам повести Виктора Некрасова “В родном городе”.
Бывший фронтовой разведчик капитан Николай Митясов (Николай Погодин) после ранения возвращается в разрушенный город и узнает невесёлые новости: его жена Шура изменила ему. Горечь и растерянность сменили надежду. Но наступил мир, началась демобилизация, надо восстанавливать родину. Николай находит в себе силы продолжать жить, поступает в строительный институт, знакомится с Валей (Елена Добронравова) и начинает новую счастливую жизнь без войны...

Источник: DVB
Качество видео: SATRip
Формат видео: AVI

Видео: 688x512 (4:3), 25 fps, XviD ~ 1504 kbps avg, 0.171 bit/pixel
Аудио: 48 kHz, Dolby Digital AC3 2.0, 192 kbps

Раздача от:
Общее
Полное имя : Gorod.zazhigaet.ogni.1958.SATRip_[New-team]_by_AVP_Studio.avi
Формат : AVI
Формат/Информация : Audio Video Interleave
Размер файла : 1,09 Гбайт
Продолжительность : 1 ч. 31 м.
Общий поток : 1706 Кбит/сек
Программа кодирования : VirtualDubMod 1.5.10.3 | www.virtualdub-fr.org || (build 2550/release)
Библиотека кодирования : VirtualDubMod build 2550/release

Видео
Идентификатор : 0
Формат : MPEG-4 Visual
Профиль формата : Advanced Simple@L5
Параметр BVOP формата : 1
Параметр QPel формата : Нет
Параметр GMC формата : Без точки перехода
Параметр матрицы формата : Выборочная
Идентификатор кодека : XVID
Идентификатор кодека/Подсказка : XviD
Продолжительность : 1 ч. 31 м.
Битрейт : 1504 Кбит/сек
Ширина : 688 пикселей
Высота : 512 пикселей
Соотношение сторон : 4:3
Частота кадров : 25,000 кадров/сек
Цветовое пространство : YUV
Субдискретизация насыщенности : 4:2:0
Битовая глубина : 8 бит
Тип развёртки : Прогрессивная
Метод сжатия : С потерями
Бит/(Пиксели*Кадры) : 0.171
Размер потока : 983 Мбайт (88%)
Библиотека кодирования : XviD 73

Аудио
Идентификатор : 1
Формат : AC-3
Формат/Информация : Audio Coding 3
Параметр Endianness формата : Big
Идентификатор кодека : 2000
Продолжительность : 1 ч. 31 м.
Вид битрейта : Постоянный
Битрейт : 192 Кбит/сек
Каналы : 2 канала
Расположение каналов : Front: L R
Частота : 48,0 КГц
Частота кадров : 31,250 кадров/сек (1536 SPF)
Битовая глубина : 16 бит
Метод сжатия : С потерями
Размер потока : 125 Мбайт (11%)
Выравнивание : Разделение по промежуткам
Продолжительность промежутка : 40 мс. (1,00 видеокадр)
Время предзагрузки промежутка : 500 мс
pb.wtf



Скачать Город зажигает огни через торрент http://s019.radikal.ru/i618/1708/d8/27637741cba9.png Скачать, смотреть онлайн Город зажигает огни бесплантно в хорошем качестве Описание:По мотивам повести Виктора Некрасова “В родном городе”.Бывший фронтовой разведчик капитан Николай Митясов (Николай Погодин) после ... 10 10 1
Info! Золотая раздача, скачанное не засчитывается.
Торрент: Зарегистрирован [2017-08-29 10:08] · скачан: 19 раз
Статус: √ проверено
Размер: 1.09 GB
Как cкачать? Как скачать Город зажигает огни через торрент | UTorrent

% Раздел Тема Автор DL S | L
Кино СССР [ 1.09 GB ] Город зажигает огни [1958 СССР SATRip-AVC от AVP Studio] AVP Studio Скачать
1 | 0
Кино СССР [ 745 MB ] Город зажигает огни [1958 СССР SATRip от AVP Studio] AVP Studio Скачать
1 | 0

28-11-2019 20:33  

Отключить всю рекламу на сайте

    Дорогой пользователь! Огромная просьба, поблагодарите релизера, оцените раздачу и оставьте свои комментарий, если Вы скачали Город зажигает огни через торрент бесплатно!
    Комментировать посты могут только пользователи прошедшие не сложную регистрацию
    Показать сообщения:    

    Город зажигает огни через торрент
    Скачать бесплатно Город зажигает огни
    Город зажигает огни скачать торрент
    Город зажигает огни смотреть онлайн
    Cкачать фильм Город зажигает огни бесплатно
    Город зажигает огни скачать торрент в хорошем качестве
    Город зажигает огни смотреть онлайн бесплатно в хорошем качестве


    Вы не можете начинать темы
    Вы не можете отвечать на сообщения
    Вы не можете редактировать свои сообщения
    Вы не можете удалять свои сообщения
    Вы не можете голосовать в опросах
    Вы не можете прикреплять файлы к сообщениям
    Вы можете скачивать файлы