новый адрес
Мега распродажа FORZA HORIZON 4 ULTIMATE+ВСЕ DLC+ОНЛАЙН всего за 499р. 349 руб. (супер цена). Внимание количество ограничено!!!

iTunes

1+1

iTunes

мы

iTunes

1

iTunes

Чернобыль

iTunes

Ральф против интернета

Лицензия

ПШазам

Лицензия

Оно 2

Лицензия

30
pack

ВАЖНО

!!Акция!!

Alien_RageХит недели

RePack

Resident Evil 21

ИГРА 18+

pack

RePack

Metro:Exodus

!!Акция!!

Alien_Rage

RePack

fifa19

RePack

Assassins Creed: Odyssey

RePack

NEED FOR SPEED™ PAYBACK

3 сезон

9 сезон

Бесстыжие 9 сезон

Все сериалы

все сериалы на PB.wtf

RePack

FAR CRY 5
Ребята, катастрофически не хватает 1900р. для оплаты серверов за Октябрь (всвязи с блокировками трафик упал в 3 раза), 1-2р., выручайте.
  

Город зажигает огни (Владимир Венгеров) [1958, СССР, драма, SATRip от AVP Studio] pb.wtf

Город зажигает огни через торрент pb.wtf

Размер: 745 MB | Добавлен: 2 года 2 мес. назад | Торрент скачан:22 раза
Скачать  

29-08-2017 10:09 Город зажигает огни Скачать торрент  

Город зажигает огни
Страна: СССР
Производство: Ленфильм

Жанр: драма
Год выпуска: 1958
Продолжительность: 01:31:21

Перевод: Не требуется
Cубтитры: нет
Оригинальная аудиодорожка: русский

Режиссер: Владимир Венгеров

В ролях:
Николай Погодин, Елена Добронравова, Олег Борисов, Лилиана Алешникова, Павел Усовниченко, Юрий Любимов, Александр Соколов, Валентин Грудинин, Борис Аракелов, Вячеслав Воронин, Алиса Фрейндлих...
Об актёрах подробней

Описание:
По мотивам повести Виктора Некрасова “В родном городе”.
Бывший фронтовой разведчик капитан Николай Митясов (Николай Погодин) после ранения возвращается в разрушенный город и узнает невесёлые новости: его жена Шура изменила ему. Горечь и растерянность сменили надежду. Но наступил мир, началась демобилизация, надо восстанавливать родину. Николай находит в себе силы продолжать жить, поступает в строительный институт, знакомится с Валей (Елена Добронравова) и начинает новую счастливую жизнь без войны...

Источник: DVB
Качество видео: SATRip
Формат видео: AVI

Видео: 640x480 (4:3), 25 fps, XviD ~ 1002 kbps avg, 0.130 bit/pixel
Аудио: 48 kHz, MP3 2.0, 128 kbps

Раздача от:
Общее
Полное имя : Gorod.zazhigaet.ogni.1958.SATRip-745_[New-team]_by_AVP_Studio.avi
Формат : AVI
Формат/Информация : Audio Video Interleave
Размер файла : 745 Мбайт
Продолжительность : 1 ч. 31 м.
Общий поток : 1140 Кбит/сек
Программа кодирования : VirtualDubMod 1.5.10.3 | www.virtualdub-fr.org || (build 2550/release)
Библиотека кодирования : VirtualDubMod build 2550/release

Видео
Идентификатор : 0
Формат : MPEG-4 Visual
Профиль формата : Advanced Simple@L5
Параметр BVOP формата : 1
Параметр QPel формата : Нет
Параметр GMC формата : Без точки перехода
Параметр матрицы формата : Выборочная
Идентификатор кодека : XVID
Идентификатор кодека/Подсказка : XviD
Продолжительность : 1 ч. 31 м.
Битрейт : 1002 Кбит/сек
Ширина : 640 пикселей
Высота : 480 пикселей
Соотношение сторон : 4:3
Частота кадров : 25,000 кадров/сек
Цветовое пространство : YUV
Субдискретизация насыщенности : 4:2:0
Битовая глубина : 8 бит
Тип развёртки : Прогрессивная
Метод сжатия : С потерями
Бит/(Пиксели*Кадры) : 0.130
Размер потока : 655 Мбайт (88%)
Библиотека кодирования : XviD 73

Аудио
Идентификатор : 1
Формат : MPEG Audio
Версия формата : Version 1
Профиль формата : Layer 3
Идентификатор кодека : 55
Идентификатор кодека/Подсказка : MP3
Продолжительность : 1 ч. 31 м.
Вид битрейта : Постоянный
Битрейт : 128 Кбит/сек
Каналы : 2 канала
Частота : 48,0 КГц
Метод сжатия : С потерями
Размер потока : 83,6 Мбайт (11%)
Выравнивание : Соединение по промежуткам
Продолжительность промежутка : 40 мс. (1,00 видеокадр)
Время предзагрузки промежутка : 504 мс.
Библиотека кодирования : LAME3.99r
Настройки программы : -m s -V 4 -q 2 -lowpass 17 -b 128
pb.wtf



Скачать Город зажигает огни через торрент http://s019.radikal.ru/i618/1708/d8/27637741cba9.png Скачать фильм Город зажигает огни через торрент бесплантно в хорошем качестве Описание:По мотивам повести Виктора Некрасова “В родном городе”.Бывший фронтовой разведчик капитан Николай Митясов (Николай Погодин) после ... 10 10 1
Info! Золотая раздача, скачанное не засчитывается.
Торрент: Зарегистрирован [2017-08-29 10:09] · скачан: 22 раз
Статус: √ проверено
Размер: 745 MB
Как cкачать? Как скачать Город зажигает огни через торрент | qTorrent

% Раздел Тема Автор DL S | L
Кино СССР [ 1.09 GB ] Город зажигает огни [1958 СССР SATRip-AVC от AVP Studio] AVP Studio Скачать
1 | 0
Кино СССР [ 1.09 GB ] Город зажигает огни [1958 СССР SATRip от AVP Studio] AVP Studio Скачать
1 | 0


>> Регистрируемся здесь <<






Отзывы и комментарии о схеме читаем и пишем здесь: ---> Отзывы и комментарии о схеме

Новые благодарочки в телеграм довольных пользователей:
скриншот   скриншот   скриншот   скриншот   скриншот
    Дорогой пользователь! Огромная просьба, поблагодарите релизера, оцените раздачу и оставьте свои комментарий, если Вы скачали Город зажигает огни через торрент бесплатно! Внесите свою лепту в развитие PiratBit!
    Комментировать посты могут только пользователи прошедшие не сложную регистрацию
    Показать сообщения:    

    Город зажигает огни через торрент
    Скачать бесплатно Город зажигает огни
    Город зажигает огни скачать торрент
    Город зажигает огни смотреть онлайн
    Cкачать фильм Город зажигает огни бесплатно
    Город зажигает огни скачать торрент в хорошем качестве
    Город зажигает огни смотреть онлайн бесплатно в хорошем качестве


    Вы не можете начинать темы
    Вы не можете отвечать на сообщения
    Вы не можете редактировать свои сообщения
    Вы не можете удалять свои сообщения
    Вы не можете голосовать в опросах
    Вы не можете прикреплять файлы к сообщениям
    Вы можете скачивать файлы