Ссылка на приватное зеркало всего за 1$. Внимание количество ограничено!!!

iTunes

iTunes

iTunes

1

iTunes

iTunes

iTunes

iTunes

iTunes

30
pack

$ от Little Big

ВАЖНО

!!Акция!!

Alien_RageХит недели

RePack

Resident Evil 21

ИГРА 18+

pack

RePack

jed

!!Акция!!

Alien_Rage

RePack

fifa19

RePack

Assassins Creed: Odyssey

RePack

NEED FOR SPEED™ PAYBACK

4 сезон

9 сезон

Бесстыжие 9 сезон

Все сериалы

все сериалы на PB.wtf

RePack

FAR CRY 5
  

Чудо-женщина / Wonder Woman (Патти Дженкинс) [2017, Фэнтези, фантастика, боевик, приключения, WEB-DL 1080p] DUB [iTunes] pb.wtf

Чудо-женщина через торрент pb.wtf

Раздают: 1 [ 0 KB/s ]
Размер: 5.23 GB | Добавлен: 2 года 10 мес. назад | Торрент скачан:3084 раза
Скачать  

29-08-2017 20:09 Чудо-женщина Скачать торрент  

Чудо-женщина / Wonder WomanГод выпуска: 2017
Страна: США
Жанр: Фэнтези, фантастика, боевик, приключения
Продолжительность: 02:21:12
Перевод: Дубляж iTunes
Субтитры: Русские (forced, full), английские

Режиссер: Патти Дженкинс

rating

В ролях:

Галь Гадот, Робин Райт, Дэвид Тьюлис, Конни Нильсен, Крис Пайн, Елена Анайя, Люси Дэвис, Юэн Бремнер, Даутцен Крёз, Дэнни Хьюстон

Описание:

Перед тем как стать Чудо-Женщиной, она была Дианой — принцессой амазонок, обученной быть непобедимой воительницей. И когда на берегах ограждённого от внешнего мира райского острова, который служил ей родиной, терпит крушение американский пилот и рассказывает о серьёзном конфликте, бушующем во внешнем мире, Диана покидает свой дом, чтобы справиться с этой угрозой. И там, сражаясь бок о бок с человеком в войне за мир, Диана обнаружит всю полноту своей власти… и своё истинное предназначение.


Качество: WEB-DL 1080p
Формат: MKV
Видео кодек: H.264
Аудио кодек: AC3

Видео: MPEG-4 AVC, 1912x792, 4537 Кbit/s, 23.976 fps
Аудио#1: 48 kHz, AC3, 5.1, 384 Kbps | Дублированный | iTunes | RUS |
Аудио#2: 48 kHz, AC3, 5.1, 384 Kbps | Оригинал | ENG |
скриншот   скриншот   скриншот   скриншот   скриншот  

General
Unique ID : 221582905186902972173455649521853580459 (0xA6B350B2AD05DA8F9C4BA1B2F03CC4AB)
Complete name : F:VideoFULLWonder.Woman.2017.DD.WEB-DL.1080p.ExKinoRay.mkv
Format : Matroska
Format version : Version 4 / Version 2
File size : 5.23 GiB
Duration : 2 h 21 min
Overall bit rate : 5 307 kb/s
Encoded date : UTC 2017-08-29 19:03:28
Writing application : mkvmerge v15.0.0 ('Duel with the Devil') 64-bit
Writing library : libebml v1.3.5 + libmatroska v1.4.5

Video
ID : 1
Format : AVC
Format/Info : Advanced Video Codec
Format profile : High@L4
Format settings, CABAC : Yes
Format settings, RefFrames : 5 frames
Codec ID : V_MPEG4/ISO/AVC
Duration : 2 h 21 min
Bit rate : 4 537 kb/s
Width : 1 912 pixels
Height : 792 pixels
Display aspect ratio : 2.40:1
Frame rate mode : Constant
Frame rate : 23.976 (24000/1001) FPS
Color space : YUV
Chroma subsampling : 4:2:0
Bit depth : 8 bits
Scan type : Progressive
Bits/(Pixel*Frame) : 0.125
Stream size : 4.48 GiB (85%)
Language : English
Default : Yes
Forced : No
Color range : Limited
Color primaries : BT.709
Transfer characteristics : BT.709
Matrix coefficients : BT.709

Audio #1
ID : 2
Format : AC-3
Format/Info : Audio Coding 3
Format settings, Endianness : Big
Codec ID : A_AC3
Duration : 2 h 21 min
Bit rate mode : Constant
Bit rate : 384 kb/s
Channel(s) : 6 channels
Channel positions : Front: L C R, Side: L R, LFE
Sampling rate : 48.0 kHz
Frame rate : 31.250 FPS (1536 SPF)
Bit depth : 16 bits
Compression mode : Lossy
Stream size : 388 MiB (7%)
Title : iTunes
Language : Russian
Service kind : Complete Main
Default : Yes
Forced : No

Audio #2
ID : 3
Format : AC-3
Format/Info : Audio Coding 3
Format settings, Endianness : Big
Codec ID : A_AC3
Duration : 2 h 21 min
Bit rate mode : Constant
Bit rate : 384 kb/s
Channel(s) : 6 channels
Channel positions : Front: L C R, Side: L R, LFE
Sampling rate : 48.0 kHz
Frame rate : 31.250 FPS (1536 SPF)
Bit depth : 16 bits
Compression mode : Lossy
Stream size : 388 MiB (7%)
Title : Original
Language : English
Service kind : Complete Main
Default : No
Forced : No

Text #1
ID : 4
Format : UTF-8
Codec ID : S_TEXT/UTF8
Codec ID/Info : UTF-8 Plain Text
Duration : 2 h 7 min
Bit rate : 1 b/s
Count of elements : 20
Stream size : 1.09 KiB (0%)
Title : Forced
Language : Russian
Default : Yes
Forced : No

Text #2
ID : 5
Format : UTF-8
Codec ID : S_TEXT/UTF8
Codec ID/Info : UTF-8 Plain Text
Duration : 2 h 9 min
Bit rate : 77 b/s
Count of elements : 1548
Stream size : 73.4 KiB (0%)
Title : Full
Language : Russian
Default : No
Forced : No

Text #3
ID : 6
Format : UTF-8
Codec ID : S_TEXT/UTF8
Codec ID/Info : UTF-8 Plain Text
Duration : 2 h 9 min
Bit rate : 47 b/s
Count of elements : 1547
Stream size : 45.1 KiB (0%)
Title : Full
Language : English
Default : No
Forced : No

Menu
00:00:00.000 : en:1
00:10:24.000 : en:2
00:23:10.000 : en:3
00:33:08.000 : en:4
00:43:53.000 : en:5
00:54:23.000 : en:6
01:07:36.000 : en:7
01:22:28.000 : en:8
01:34:00.000 : en:9
01:45:35.000 : en:10
01:57:41.000 : en:11
02:10:38.000 : en:12

pb.wtf



Скачать Чудо-женщина через торрент http://s019.radikal.ru/i625/1708/91/fb5ec1bf1390.jpg Скачать фильм Чудо-женщина через торрент бесплантно в хорошем качестве Описание: Перед тем как стать Чудо-Женщиной, она была Дианой — принцессой амазонок, обученной быть непобедимой воительницей. И когда на ... 9.8 10 52
Info! Золотая раздача, скачанное не засчитывается.
Торрент: Зарегистрирован [2017-08-30 05:27] · скачан: 3 084 раз
Статус: √ проверено
Размер: 5.23 GB
Как cкачать? Как скачать Чудо-женщина через торрент | qTorrent

% Раздел Тема Автор DL S | L
Фильмы (Blu-ray, BD-Remux, HDDVD) [ 42.95 GB ] Чудо-женщина / Wonder Woman [2017 BDRemux 1080p] DUB + 2xAVO + VO sheker187 Скачать
1 | 0
Фильмы 2017 [DVDrip, WEB-DLRip, HDrip] (DUB, MVO) [ 1.46 GB ] Профессор Марстон и Чудо-женщины / Professor Marston and the Wonder Women [2017 биография BDRip] MVO [] bober100 Скачать
1 | 0
Фильмы (Blu-ray, BD-Remux, HDDVD) [ 23.23 GB ] Профессор Марстон и Чудо-женщины / Professor Marston and the Wonder Women [2017 биография BD Remux 1080p] MVO [] bober100 Скачать
1 | 0
Фильмы [HD 720p, 1080p] (Хороший звук DUB, MVO) [ 4.86 GB ] Профессор Марстон и Чудо-женщины / Professor Marston and the Wonder Women [2017 биография BDRip 720p] MVO [] bober100 Скачать
1 | 0
Фильмы [HD 720p, 1080p] (Хороший звук DUB, MVO) [ 11.67 GB ] Профессор Марстон и Чудо-женщины / Professor Marston and the Wonder Women [2017 биография BDRip 1080p] MVO [] bober100 Скачать
1 | 0
Фильмы 2017 [DVDrip, WEB-DLRip, HDrip] (DUB, MVO) [ 1.46 GB ] Чудо-женщина / Wonder Woman [2017 BDRip] - [] Twi7ter Скачать
1 | 0
Ultra HD (UHD: 2K, 4K, 8K) — видео сверхвысокой чёткости [ 59.65 GB ] Чудо-женщина / Wonder Woman [2017 UHD BDRemux 2160p] DUB [ BD EUR] +AVO [А. Дасевич] bober100 Скачать
1 | 0

28-11-2019 20:33  

Отключить всю рекламу на сайте

30-08-2017 08:17 Чудо-женщина Скачать торрент  

Спасибо, качаю.pb.wtf



30-08-2017 16:18 Чудо-женщина Скачать торрент  

Спасибо, забираю )))pb.wtf



30-08-2017 23:25 Чудо-женщина Скачать торрент  

Все таки DC-шные поделки смотрятся интереснее Marvel...pb.wtf



01-09-2017 16:13 Чудо-женщина Скачать торрент  

весь фильм на актрису залипал pb.wtf



    Дорогой пользователь! Огромная просьба, поблагодарите релизера, оцените раздачу и оставьте свои комментарий, если Вы скачали Чудо-женщина через торрент бесплатно! Внесите свою лепту в развитие PiratBit!
    Комментировать посты могут только пользователи прошедшие не сложную регистрацию
    Показать сообщения:    

    Чудо-женщина через торрент
    Скачать бесплатно Чудо-женщина
    Чудо-женщина скачать торрент
    Чудо-женщина смотреть онлайн
    Cкачать фильм Чудо-женщина бесплатно
    Чудо-женщина скачать торрент в хорошем качестве
    Чудо-женщина смотреть онлайн бесплатно в хорошем качестве


    Вы не можете начинать темы
    Вы не можете отвечать на сообщения
    Вы не можете редактировать свои сообщения
    Вы не можете удалять свои сообщения
    Вы не можете голосовать в опросах
    Вы не можете прикреплять файлы к сообщениям
    Вы можете скачивать файлы