Ссылка на приватное зеркало нашего сайта всего за 1$. Внимание количество ограничено!!!

2 сезон

iTunes

1 сезон

1

iTunes

iTunes

iTunes

1 сезон

RePack

30

ИГРА 18+

pack

ВАЖНО

!!Акция!!

Alien_RageХит недели

RePack

MK11
pack

Забери бонус

RePack

jed

!!Акция!!

Alien_Rage

RePack

fifa19

RePack

Assassins Creed: Odyssey

RePack

NEED FOR SPEED™ PAYBACK

4 сезон

9 сезон

Бесстыжие 9 сезон

Все сериалы

все сериалы на PB.wtf

RePack

FAR CRY 5
  

Часы / The Hours (Стивен Долдри) [2002, драма, мелодрама, BDRip 720p by msltel] DUB, MVO, DVO pb.wtf

Часы через торрент pb.wtf

Размер: 5.41 GB | Добавлен: 3 года 1 мес. назад | Торрент скачан:21 раз
Скачать  

30-08-2017 05:45 Часы Скачать торрент  

Название: Часы
Оригинальное название: The Hours
Год выпуска: 2002
Страна: США, Великобритания
Жанр: драма, мелодрама
Продолжительность: 01:50:05
Перевод: дублированный, профессиональный многоголосый, профессиональный двухголосый

Режиссер: Стивен Долдри
В ролях: Николь Кидман, Мэрил Стрип, Джулианна Мур, Эд Харрис, Эллисон Джэнни, Клер Дэйнс, Тони Коллетт, Айлин Эткинс, Стивен Диллэйн, Чарли Рамм, Джон С. Райлли, Миранда Ричардсон

О фильме: Истории трёх женщин: Вирджинии Вулф, которая показана в период написания ею «Миссис Дэллоуэй», когда её терзали мысли о самоубийстве; Лары Браун, молодой жены и матери, которая задыхается в рамках своей опрятной жизни среди Лос-Анджелеса 1951 года; и Клариссы Вон, которая устраивает вечеринку в Нью-Йорке наших дней для своего близкого друга Ричарда, умирающего от СПИДа... Фильм снят по мотивам романа Майкла Каннингема «Часы» (The Hours, 1998).



Качество: BDRip 720p
Формат: MKV
Видео: MPEG-4 AVC, 5560 Кбит/с, 1280x694
Аудио 1: русский, AC3, 448 kbps, 6 ch [дублированный]
Аудио 2: русский, AC3, 192 kbps, 2 ch [профессиональный многоголосый]
Аудио 3: русский, AC3, 384 kbps, 2 ch [профессиональный двухголосый]
Аудио 4: английский, AC3, 448 kbps, 6 ch, 48 kHz [оригинал]
Субтитры 1: русские, вариант 1
Субтитры 2: русские, вариант 2
Имеются неименованные главы/чаптеры.
Общее
Уникальный идентификатор : 241045842041997434260080161598110511860 (0xB557BD9272BBC9F7AECBD8F395D132F4)
Полное имя : D:\Video\Часы.2002.BDRip.720p by msltel.mkv
Формат : Matroska
Версия формата : Version 4 / Version 2
Размер файла : 5,41 Гбайт
Продолжительность : 1 ч. 50 м.
Общий поток : 7031 Кбит/сек
Название фильма : Rip by msltel
Дата кодирования : UTC 2017-08-30 02:09:29
Программа кодирования : mkvmerge v8.2.0 ('World of Adventure') 64bit
Библиотека кодирования : libebml v1.3.1 + libmatroska v1.4.2

Видео
Идентификатор : 1
Формат : AVC
Формат/Информация : Advanced Video Codec
Профиль формата : High@L4.1
Параметр CABAC формата : Да
Параметр RefFrames формата : 9 кадров
Идентификатор кодека : V_MPEG4/ISO/AVC
Продолжительность : 1 ч. 50 м.
Битрейт : 5560 Кбит/сек
Ширина : 1280 пикселей
Высота : 694 пикселя
Соотношение сторон : 1,85:1
Режим частоты кадров : Постоянный
Частота кадров : 25,000 кадров/сек
Цветовое пространство : YUV
Субдискретизация насыщенности : 4:2:0
Битовая глубина : 8 бит
Тип развёртки : Прогрессивная
Бит/(Пиксели*Кадры) : 0.250
Размер потока : 4,27 Гбайт (79%)
Библиотека кодирования : x264 core 146 r2538 121396c
Настройки программы : cabac=1 / ref=9 / deblock=1:-3:-2 / analyse=0x3:0x113 / me=umh / subme=11 / psy=1 / psy_rd=1.00:0.15 / mixed_ref=1 / me_range=32 / chroma_me=1 / trellis=2 / 8x8dct=1 / cqm=0 / deadzone=21,11 / fast_pskip=0 / chroma_qp_offset=-3 / threads=6 / lookahead_threads=1 / sliced_threads=0 / nr=0 / decimate=1 / interlaced=0 / bluray_compat=0 / constrained_intra=0 / bframes=8 / b_pyramid=2 / b_adapt=2 / b_bias=0 / direct=1 / weightb=1 / open_gop=0 / weightp=2 / keyint=250 / keyint_min=25 / scenecut=40 / intra_refresh=0 / rc_lookahead=40 / rc=crf / mbtree=0 / crf=19.0 / qcomp=0.60 / qpmin=0 / qpmax=69 / qpstep=4 / vbv_maxrate=62500 / vbv_bufsize=78125 / crf_max=0.0 / nal_hrd=none / filler=0 / ip_ratio=1.40 / pb_ratio=1.30 / aq=1:1.00
Язык : English
Default : Да
Forced : Нет

Аудио #1
Идентификатор : 2
Формат : AC-3
Формат/Информация : Audio Coding 3
Параметр Endianness формата : Big
Идентификатор кодека : A_AC3
Продолжительность : 1 ч. 50 м.
Вид битрейта : Постоянный
Битрейт : 448 Кбит/сек
Каналы : 6 каналов
Расположение каналов : Front: L C R, Side: L R, LFE
Частота : 48,0 КГц
Частота кадров : 31,250 кадров/сек (1536 SPF)
Битовая глубина : 16 бит
Метод сжатия : С потерями
Размер потока : 353 Мбайт (6%)
Заголовок : DUB
Язык : Russian
ServiceKind/String : Complete Main
Default : Да
Forced : Нет

Аудио #2
Идентификатор : 3
Формат : AC-3
Формат/Информация : Audio Coding 3
Параметр Endianness формата : Big
Идентификатор кодека : A_AC3
Продолжительность : 1 ч. 50 м.
Вид битрейта : Постоянный
Битрейт : 192 Кбит/сек
Каналы : 2 канала
Расположение каналов : Front: L R
Частота : 48,0 КГц
Частота кадров : 31,250 кадров/сек (1536 SPF)
Битовая глубина : 16 бит
Метод сжатия : С потерями
Размер потока : 151 Мбайт (3%)
Заголовок : MVO
Язык : Russian
ServiceKind/String : Complete Main
Default : Нет
Forced : Нет

Аудио #3
Идентификатор : 4
Формат : AC-3
Формат/Информация : Audio Coding 3
Параметр Endianness формата : Big
Идентификатор кодека : A_AC3
Продолжительность : 1 ч. 50 м.
Вид битрейта : Постоянный
Битрейт : 384 Кбит/сек
Каналы : 2 канала
Расположение каналов : Front: L R
Частота : 48,0 КГц
Частота кадров : 31,250 кадров/сек (1536 SPF)
Битовая глубина : 16 бит
Метод сжатия : С потерями
Размер потока : 302 Мбайт (5%)
Заголовок : DVO
Язык : Russian
ServiceKind/String : Complete Main
Default : Нет
Forced : Нет

Аудио #4
Идентификатор : 5
Формат : AC-3
Формат/Информация : Audio Coding 3
Параметр Endianness формата : Big
Идентификатор кодека : A_AC3
Продолжительность : 1 ч. 50 м.
Вид битрейта : Постоянный
Битрейт : 448 Кбит/сек
Каналы : 6 каналов
Расположение каналов : Front: L C R, Side: L R, LFE
Частота : 48,0 КГц
Частота кадров : 31,250 кадров/сек (1536 SPF)
Битовая глубина : 16 бит
Метод сжатия : С потерями
Размер потока : 353 Мбайт (6%)
Заголовок : original
Язык : English
ServiceKind/String : Complete Main
Default : Нет
Forced : Нет

Текст #1
Идентификатор : 6
Формат : UTF-8
Идентификатор кодека : S_TEXT/UTF8
Идентификатор кодека/Информация : UTF-8 Plain Text
Продолжительность : 1 ч. 44 м.
Битрейт : 74 бит/сек
ElementCount : 1304
Размер потока : 57,1 Кбайт (0%)
Заголовок : русские, вариант 1
Язык : Russian
Default : Нет
Forced : Нет

Текст #2
Идентификатор : 7
Формат : UTF-8
Идентификатор кодека : S_TEXT/UTF8
Идентификатор кодека/Информация : UTF-8 Plain Text
Продолжительность : 1 ч. 45 м.
Битрейт : 75 бит/сек
ElementCount : 1151
Размер потока : 57,7 Кбайт (0%)
Заголовок : русские, вариант 2
Язык : Russian
Default : Нет
Forced : Нет

Меню
00:00:00.000 : :Chapter 01
00:07:37.519 : :Chapter 02
00:17:51.279 : :Chapter 03
00:28:29.518 : :Chapter 04
00:38:29.639 : :Chapter 05
00:47:30.719 : :Chapter 06
00:57:29.599 : :Chapter 07
01:07:55.880 : :Chapter 08
01:17:30.439 : :Chapter 09
01:28:10.760 : :Chapter 10
01:37:33.198 : :Chapter 11
01:45:36.119 : :Chapter 12
01:49:59.800 : :Chapter 13
pb.wtf



Скачать Часы через торрент http://s013.radikal.ru/i323/1708/03/e75ecc87177a.jpg Скачать фильм Часы через торрент бесплантно в хорошем качестве О фильме: Истории трёх женщин: Вирджинии Вулф, которая показана в период написания ею «Миссис Дэллоуэй», когда её терзали мысли о ... 5.5 10 2
Info! Золотая раздача, скачанное не засчитывается.
Торрент: Зарегистрирован [2017-08-30 05:45] · скачан: 21 раз
Статус: √ проверено
Размер: 5.41 GB
Как cкачать? Как скачать Часы через торрент | qTorrent

% Раздел Тема Автор DL S | L
Фильмы [HD 720p, 1080p] (Хороший звук DUB, MVO) [ 13.93 GB ] Часы / The Hours [2002 BDRip 1080p by msltel] DUB MVO DVO msltel Скачать
1 | 0

28-11-2019 20:33  

Отключить всю рекламу на сайте

    Дорогой пользователь! Огромная просьба, поблагодарите релизера, оцените раздачу и оставьте свои комментарий, если Вы скачали Часы через торрент бесплатно! Внесите свою лепту в развитие PiratBit!
    Комментировать посты могут только пользователи прошедшие не сложную регистрацию
    Показать сообщения:    

    Часы через торрент
    Скачать бесплатно Часы
    Часы скачать торрент
    Часы смотреть онлайн
    Cкачать фильм Часы бесплатно
    Часы скачать торрент в хорошем качестве
    Часы смотреть онлайн бесплатно в хорошем качестве


    Вы не можете начинать темы
    Вы не можете отвечать на сообщения
    Вы не можете редактировать свои сообщения
    Вы не можете удалять свои сообщения
    Вы не можете голосовать в опросах
    Вы не можете прикреплять файлы к сообщениям
    Вы можете скачивать файлы