Ссылка на приватное зеркало нашего сайта всего за 1$. Внимание количество ограничено!!!

2 сезон

iTunes

1 сезон

1

iTunes

iTunes

iTunes

1 сезон

RePack

30

ИГРА 18+

pack

ВАЖНО

!!Акция!!

Alien_RageХит недели

RePack

MK11
pack

Забери бонус

RePack

jed

!!Акция!!

Alien_Rage

RePack

fifa19

RePack

Assassins Creed: Odyssey

RePack

NEED FOR SPEED™ PAYBACK

4 сезон

9 сезон

Бесстыжие 9 сезон

Все сериалы

все сериалы на PB.wtf

RePack

FAR CRY 5
  

Ловкость / Sleight (Джастин Диллард) [2016, фантастика, боевик, триллер, драма, BDRip 1080p] [MVO] [Лицензия / iTunes] pb.wtf

Ловкость через торрент pb.wtf

Размер: 8.39 GB | Добавлен: 3 года 1 мес. назад | Торрент скачан:609 раз
Скачать  

30-08-2017 09:16 Ловкость Скачать торрент  

Ловкость / Sleight Год выпуска: 2016
Страна: США
Производство: Diablo Entertainment (II)
Жанр: фантастика, боевик, триллер, драма
Продолжительность: 01:30:26
Перевод: Профессиональный (многоголосый) [Лицензия / iTunes]
Субтитры: Английские
Режиссер: Джастин Диллард
Автор сценария: Джастин Диллард

В ролях: Джейкоб Латимор, Сейшелл Гэбриел, Дьюли Хилл, Сторм Рейд, Сашир Замата, Майкл Виллар, Брэндон Джонсон, Камерон Эспозито

Описание: Молодой уличный фокусник вынужден взять на себя заботу о маленькой сестре после того, как их родители попытались незаконным путем сохранить крышу над головой. Малышку похищают и, чтобы спасти её, парню придется использовать свою магию и блестящий ум...


Качество: BDRip 1080p
Формат: MKV
Видео кодек: AVC
Аудио кодек: AC3, DTS
Видео: AVC, 1920x800, 23.976 fps, ~11.6 Mbps
Аудио: 48 kHz, AC3, 6 ch, ~384 kbps - MVO
Аудио: 48 kHz, DTS, 6 ch, ~1509 kbps - ENG
General
Unique ID : 196928764688383439699702084931319988366 (0x942719B937D80F4E8DAD382BA6E7808E)
Complete name : E:\Sleight.2016.P.1080p.BDRip.mkv
Format : Matroska
Format version : Version 2
File size : 8.39 GiB
Duration : 1h 29mn
Overall bit rate : 13.5 Mbps
Movie name : Rustorrents.pro
Encoded date : UTC 2017-08-30 08:06:17
Writing application : mkvmerge v7.8.0 ('River Man') 32bit built on Apr 3 2015 12:11:22
Writing library : libebml v1.3.1 + libmatroska v1.4.2

Video
ID : 1
Format : AVC
Format/Info : Advanced Video Codec
Format profile : High@L4.1
Format settings, CABAC : Yes
Format settings, ReFrames : 5 frames
Codec ID : V_MPEG4/ISO/AVC
Duration : 1h 29mn
Bit rate : 11.6 Mbps
Width : 1 920 pixels
Height : 800 pixels
Display aspect ratio : 2.40:1
Frame rate mode : Constant
Frame rate : 23.976 fps
Color space : YUV
Chroma subsampling : 4:2:0
Bit depth : 8 bits
Scan type : Progressive
Bits/(Pixel*Frame) : 0.314
Stream size : 7.05 GiB (84%)
Title : Sleight.2016.1080p.BluRay.DTS-HD.MA.5.1.x264-iFT
Writing library : x264 core 142 r2431+42 c69a006 tMod [8-bit@all X86_64]
Encoding settings : cabac=1 / ref=5 / deblock=1:-3:-3 / analyse=0x3:0x133 / me=umh / subme=11 / psy=1 / fade_compensate=0.00 / psy_rd=1.05:0.15 / mixed_ref=1 / me_range=48 / chroma_me=1 / trellis=2 / 8x8dct=1 / cqm=0 / deadzone=21,11 / fast_pskip=1 / chroma_qp_offset=-3 / threads=16 / lookahead_threads=4 / sliced_threads=0 / nr=0 / decimate=0 / interlaced=0 / bluray_compat=0 / constrained_intra=0 / fgo=0 / bframes=10 / b_pyramid=2 / b_adapt=2 / b_bias=0 / direct=3 / weightb=1 / open_gop=0 / weightp=2 / keyint=240 / keyint_min=23 / scenecut=40 / intra_refresh=0 / rc_lookahead=60 / rc=2pass / mbtree=1 / bitrate=11570 / ratetol=1.0 / qcomp=0.70 / qpmin=0:0:0 / qpmax=69:69:69 / qpstep=4 / cplxblur=20.0 / qblur=0.5 / vbv_maxrate=50000 / vbv_bufsize=62500 / nal_hrd=none / filler=0 / ip_ratio=1.30 / aq=1:0.80 / aq-sensitivity=10.00 / aq-factor=1.00:1.00:1.00 / aq2=0 / aq3=0
Default : Yes
Forced : No
Color range : Limited
Color primaries : BT.709
Transfer characteristics : BT.709
Matrix coefficients : BT.709

Audio #1
ID : 2
Format : AC-3
Format/Info : Audio Coding 3
Mode extension : CM (complete main)
Format settings, Endianness : Big
Codec ID : A_AC3
Duration : 1h 29mn
Bit rate mode : Constant
Bit rate : 384 Kbps
Channel(s) : 6 channels
Channel positions : Front: L C R, Side: L R, LFE
Sampling rate : 48.0 KHz
Compression mode : Lossy
Stream size : 245 MiB (3%)
Title : iTunes
Language : Russian
Default : Yes
Forced : Yes

Audio #2
ID : 3
Format : DTS
Format/Info : Digital Theater Systems
Mode : 16
Format settings, Endianness : Big
Codec ID : A_DTS
Duration : 1h 29mn
Bit rate mode : Constant
Bit rate : 1 509 Kbps
Channel(s) : 6 channels
Channel positions : Front: L C R, Side: L R, LFE
Sampling rate : 48.0 KHz
Bit depth : 24 bits
Compression mode : Lossy
Stream size : 964 MiB (11%)
Title : English
Language : English
Default : No
Forced : No

Text
ID : 4
Format : VobSub
Muxing mode : zlib
Codec ID : S_VOBSUB
Codec ID/Info : Picture based subtitle format used on DVDs
Language : English
Default : Yes
Forced : No

Menu
00:00:00.000 : en:Chapter 01
00:05:06.055 : en:Chapter 02
00:11:20.846 : en:Chapter 03
00:14:06.011 : en:Chapter 04
00:18:15.469 : en:Chapter 05
00:24:13.410 : en:Chapter 06
00:28:46.933 : en:Chapter 07
00:34:23.728 : en:Chapter 08
00:38:57.168 : en:Chapter 09
00:43:32.818 : en:Chapter 10
00:49:00.520 : en:Chapter 11
00:51:59.282 : en:Chapter 12
00:53:57.484 : en:Chapter 13
00:59:05.750 : en:Chapter 14
01:05:31.928 : en:Chapter 15
01:09:55.274 : en:Chapter 16
01:13:27.111 : en:Chapter 17
01:15:21.391 : en:Chapter 18
01:22:06.630 : en:Chapter 19
01:24:43.995 : en:Chapter 20
01:29:16.142 : en:Chapter 21
pb.wtf



Скачать Ловкость через торрент http://img11.lostpic.net/2017/06/15/e0b9ff1d12fb2cff6c0384f014348195.png Скачать фильм Ловкость через торрент бесплантно в хорошем качестве Описание: Молодой уличный фокусник вынужден взять на себя заботу о маленькой сестре после того, как их родители попытались незаконным путем ... 9.6 10 17
Info! Золотая раздача, скачанное не засчитывается.
Торрент: Зарегистрирован [2017-08-30 09:16] · скачан: 609 раз
Статус: √ проверено
Размер: 8.39 GB
Как cкачать? Как скачать Ловкость через торрент | qTorrent

% Раздел Тема Автор DL S | L
Фильмы (Blu-ray, BD-Remux, HDDVD) [ 24.33 GB ] Ловкость / Sleight [2016 Blu-ray EUR 1080p] MVO [] sheker187 Скачать
1 | 0
Фильмы 2016 [DVDrip, WEB-DLRip, HDrip] (DUB, MVO) [ 2.05 GB ] Ловкость / Sleight [2016 HDRip многоголосый "BD EUR"] coc900 Скачать
1 | 0
Фильмы 2016 [DVDrip, WEB-DLRip, HDrip] (DUB, MVO) [ 1.23 GB ] Ловкость / Sleight [2016 BDRip-AVC] MVO [] bober100 Скачать
1 | 0
Фильмы 2016 [DVDrip, WEB-DLRip, HDrip] (DUB, MVO) [ 1.45 GB ] Ловкость / Sleight [2016 BDRip] MVO [] Twi7ter Скачать
2 | 0
Фильмы 2016 [DVDrip, WEB-DLRip, HDrip] (DUB, MVO) [ 1.41 GB ] Ловкость / Sleight [2016 BDRip] MVO Twi7ter Скачать
1 | 0
Фильмы 2016 [DVDrip, WEB-DLRip, HDrip] (DUB, MVO) [ 1.19 GB ] Ловкость / Sleight [2016 BDRip AVC] [MVO] От R.G.Generalfilm White Smoke Скачать
1 | 0
Фильмы без перевода [ 23.27 GB ] Ловкость / Sleight [2016 BDRemux] [Оригинал-ENG] smaster Скачать
1 | 0

28-11-2019 20:33  

Отключить всю рекламу на сайте

31-08-2017 11:51 Ловкость Скачать торрент  

как кено? кто попалил?pb.wtf



31-08-2017 13:35 Ловкость Скачать торрент  

хех многие спалили но молчат . а описание нууууу савсем пи****pb.wtf



    Дорогой пользователь! Огромная просьба, поблагодарите релизера, оцените раздачу и оставьте свои комментарий, если Вы скачали Ловкость через торрент бесплатно! Внесите свою лепту в развитие PiratBit!
    Комментировать посты могут только пользователи прошедшие не сложную регистрацию
    Показать сообщения:    

    Ловкость через торрент
    Скачать бесплатно Ловкость
    Ловкость скачать торрент
    Ловкость смотреть онлайн
    Cкачать фильм Ловкость бесплатно
    Ловкость скачать торрент в хорошем качестве
    Ловкость смотреть онлайн бесплатно в хорошем качестве


    Вы не можете начинать темы
    Вы не можете отвечать на сообщения
    Вы не можете редактировать свои сообщения
    Вы не можете удалять свои сообщения
    Вы не можете голосовать в опросах
    Вы не можете прикреплять файлы к сообщениям
    Вы можете скачивать файлы