Ссылка на приватное зеркало нашего сайта всего за 1$. Внимание количество ограничено!!!

2 сезон

iTunes

1 сезон

1

2 сезон

2 сезон

iTunes

1 сезон

RePack

30

Ultimate

ВАЖНО

ИГРА 18+

pack

RePack

MK11
pack

Забери бонус

RePack

jed

!!Акция!!

Alien_Rage

RePack

fifa19

RePack

Assassins Creed: Odyssey

RePack

NEED FOR SPEED™ PAYBACK

4 сезон

9 сезон

Бесстыжие 9 сезон

Все сериалы

все сериалы на PB.wtf

RePack

FAR CRY 5
  

Страйк / Strike / Сезон: 1 / Серии 1-3 из 3 (Майкл Кейллор, Кирон Хоукс, Чарльз Старридж) [2017, Триллер, драма, криминал, детектив, HDTVRip] [MVO] (NewStudio) pb.wtf

Страйк через торрент pb.wtf

Размер: 2.05 GB | Добавлен: 3 года 2 мес. назад | Торрент скачан:68 раз
Скачать  

30-08-2017 17:20 Страйк Скачать торрент  

Страйк / Strike Год выпуска: 2017
Страна: Великобритания
Жанр: Триллер, драма, криминал, детектив
Продолжительность: 00:57:00
Перевод: Профессиональный (многоголосый, закадровый) *NewStudio*

Режиссёр: Майкл Кейллор, Кирон Хоукс, Чарльз Старридж

В ролях: Том Бёрк,Холлидей Грейнджер,Керр Логан,Лео Билл,Мартин Шоу

Описание: Частный детектив, ветеран войны Корморан Страйк, расследует загадочную смерть модели Лулы Лэндри, упавшей с балкона. Все считают, что Лула закончила жизнь самоубийством, но её брат сомневается в этом и нанимает Страйка, чтобы разобраться в ситуации. Однако Страйк скептически относится к делу. Узнав об очевидности самоубийства Лулы и широком освещении дела в СМИ, он поначалу не хочет браться за его расследование. Однако частное расследование — это единственная возможность для Страйка немного подзаработать и подняться на ноги, и он берется за это дело. В этом ему помогает секретарша Робин Эллакотт.



премьера (мир) - 27 августа 2017



Качество: HDTVRip
Формат: AVI
Видео: XvID, 720*400, 25,000 кадров/сек
Аудио: 48 kHz, MP3, 2/0 (L,R) ch, ~128 kbps - MVO
Аудио: 48 kHz, MP3, 2/0 (L,R) ch, ~128 kbps - ENG
General
Complete name : E:\Strike (Season 01) NewStudio\Strike.s01e02.HDTVRip.NewStudio.TV.avi
Format : AVI
Format/Info : Audio Video Interleave
File size : 700 MiB
Duration : 58mn 13s
Overall bit rate : 1 681 Kbps
Writing application : VirtualDubMod 1.5.10.2 (build 2540/release)
Writing library : VirtualDubMod build 2540/release

Video
ID : 0
Format : MPEG-4 Visual
Format profile : Advanced Simple@L5
Format settings, BVOP : 2
Format settings, QPel : Yes
Format settings, GMC : No warppoints
Format settings, Matrix : Default (MPEG)
Muxing mode : Packed bitstream
Codec ID : XVID
Codec ID/Hint : XviD
Duration : 58mn 13s
Bit rate : 1 347 Kbps
Width : 720 pixels
Height : 400 pixels
Display aspect ratio : 16:9
Frame rate : 25.000 fps
Color space : YUV
Chroma subsampling : 4:2:0
Bit depth : 8 bits
Scan type : Progressive
Compression mode : Lossy
Bits/(Pixel*Frame) : 0.187
Stream size : 561 MiB (80%)
Writing library : XviD 73

Audio #1
ID : 1
Format : MPEG Audio
Format version : Version 1
Format profile : Layer 3
Mode : Joint stereo
Mode extension : MS Stereo
Codec ID : 55
Codec ID/Hint : MP3
Duration : 58mn 13s
Bit rate mode : Constant
Bit rate : 128 Kbps
Channel(s) : 2 channels
Sampling rate : 48.0 KHz
Compression mode : Lossy
Stream size : 53.3 MiB (8%)
Alignment : Aligned on interleaves

Audio #2
ID : 2
Format : MPEG Audio
Format version : Version 1
Format profile : Layer 3
Mode : Joint stereo
Mode extension : MS Stereo
Codec ID : 55
Codec ID/Hint : MP3
Duration : 58mn 13s
Bit rate mode : Constant
Bit rate : 128 Kbps
Channel(s) : 2 channels
Sampling rate : 48.0 KHz
Compression mode : Lossy
Stream size : 53.3 MiB (8%)
Alignment : Aligned on interleaves
Writing library : LAME3.99r
Encoding settings : -m j -V 4 -q 2 -lowpass 17 -b 128
скриншот  скриншот  скриншот  
Когда раздача ведётся путём добавления новых серий, при каждом добавлении создётся новый торрент. Чтобы начать докачку новой серии, пользователям необходимо сделать следующее:
(1) остановить скачивание,
(2) удалить старый торрент у себя из клиента (старые серии удалять не надо),
(3) скачать новый торрент и запустить его у себя в клиенте вместо старого, при этом указать клиенту путь в старую папку, куда и должно происходить скачивание новых серий.
Ваш клиент при этом должен произвести хеширование (проверку) старой папки (если не производит сам - помогите ему сделать это), и будет докачивать только те серии, которых у вас ещё нет. Старые серии при этом не удаляются, а продолжают раздаваться!
Eсли вы уже удалили старые серии, то предотвратить повторную закачку старых серий можно, отжав галочку в соответсвующих местах при запуске нового торрента. По возможности, желательно не удалять старые серии как можно дольше, чтобы релизёр не столько продолжал раздавать старые серии, а смог сконцентрироваться на новых.
pb.wtf



Скачать Страйк через торрент https://i91.fastpic.ru/big/2017/0828/6a/87e429393eeddb178dc15db6ab65a46a.png Скачать фильм Страйк через торрент бесплантно в хорошем качестве Описание: Частный детектив, ветеран войны Корморан Страйк, расследует загадочную смерть модели Лулы Лэндри, упавшей с балкона. Все считают, ... 10 10 3
Торрент: Зарегистрирован [2017-09-06 06:52] · скачан: 68 раз
Статус: √ проверено
Размер: 2.05 GB
Как cкачать? Как скачать Страйк через торрент | qTorrent

% Раздел Тема Автор DL S | L
Зарубежные сериалы [ 32.88 GB ] Страйк / Strike / Сезон: 1-3 / Серии 1-11 из 11 [2017-2020 WEB-DL 1080p] [MVO] killermax2013 Скачать
1 | 2
Зарубежные сериалы [ 1.42 GB ] Страйк / Strike / Сезон: 3 / Серии 1-2 из 2 [2018 HDTVRip] [MVO] killermax2013 Скачать
1 | 0
Зарубежные сериалы [ 2.12 GB ] Страйк / Strike / Сезон: 1 / Серии 1-3 из 3 [2017 HDTVRip] [MVO] killermax2013 Скачать
1 | 0
Зарубежные сериалы [ 1.3 GB ] Страйк / Strike / Сезон: 3 / Серии 1-2 из 2 [2018 HDTVRip] MVO [BaibaKo] GEKADOL Скачать
1 | 0
Зарубежные сериалы [ 4.73 GB ] Страйк / Strike / Сезон: 1 / Серии 1-3 из 3 [2017 HDTVRip 1080p] MVO [BaibaKo] GEKADOL Скачать
1 | 0

28-11-2019 20:33  

Отключить всю рекламу на сайте

06-09-2017 06:52 Страйк Скачать торрент  

+3pb.wtf



    Дорогой пользователь! Огромная просьба, поблагодарите релизера, оцените раздачу и оставьте свои комментарий, если Вы скачали Страйк через торрент бесплатно! Внесите свою лепту в развитие PiratBit!
    Комментировать посты могут только пользователи прошедшие не сложную регистрацию
    Показать сообщения:    

    Страйк через торрент
    Скачать бесплатно Страйк
    Страйк скачать торрент
    Страйк смотреть онлайн
    Cкачать фильм Страйк бесплатно
    Страйк скачать торрент в хорошем качестве
    Страйк смотреть онлайн бесплатно в хорошем качестве


    Вы не можете начинать темы
    Вы не можете отвечать на сообщения
    Вы не можете редактировать свои сообщения
    Вы не можете удалять свои сообщения
    Вы не можете голосовать в опросах
    Вы не можете прикреплять файлы к сообщениям
    Вы можете скачивать файлы