новый адрес
Мега распродажа FORZA HORIZON 4 ULTIMATE+ВСЕ DLC+ОНЛАЙН всего за 499р. 349 руб. (супер цена). Внимание количество ограничено!!!

iTunes

1+1

iTunes

мы

iTunes

1

iTunes

Чернобыль

iTunes

Ральф против интернета

Лицензия

ПШазам

Лицензия

Оно 2

Лицензия

30
pack

ВАЖНО

!!Акция!!

Alien_RageХит недели

RePack

Resident Evil 21

ИГРА 18+

pack

RePack

Metro:Exodus

!!Акция!!

Alien_Rage

RePack

fifa19

RePack

Assassins Creed: Odyssey

RePack

NEED FOR SPEED™ PAYBACK

3 сезон

9 сезон

Бесстыжие 9 сезон

Все сериалы

все сериалы на PB.wtf

RePack

FAR CRY 5
Ребята, катастрофически не хватает 1900р. для оплаты серверов за Октябрь (всвязи с блокировками трафик упал в 3 раза), 1-2р., выручайте.
  

Отцы и дети (Адольф Бергункер, Наталья Рашевская) [1958, СССР, драма, история, SATRip от AVP Studio] pb.wtf

Отцы и дети через торрент pb.wtf

Размер: 1.46 GB | Добавлен: 2 года 2 мес. назад | Торрент скачан:24 раза
Скачать  

31-08-2017 09:02 Отцы и дети Скачать торрент  

Отцы и дети
Страна: СССР
Производство: Ленфильм

Жанр: драма, история
Год выпуска: 1958
Продолжительность: 01:36:32

Перевод: Не требуется
Cубтитры: нет
Оригинальная аудиодорожка: русский

Режиссер: Адольф Бергункер, Наталья Рашевская

В ролях:
Виктор Авдюшко, Эдуард Марцевич, Алексей Консовский, Бруно Фрейндлих, Изольда Извицкая, Алла Ларионова, Николай Сергеев, Екатерина Александровская, Валентина Буланова...
Об актёрах подробней

Описание:
По одноименному роману И.С. Тургенева.
Проблема "отцов и детей" — проблема вечная. Конфликт неизбежен всякий раз, когда сталкиваются интересы двух поколений. Во второй половине XIX века это вечное противостояние выбилось за рамки бытового, семейного конфликта и невероятно обострилось. Этот переломный момент в жизни русского общества и нашел свое отражение в романе.

Источник: DVB
Качество видео: SATRip
Формат видео: AVI

Видео: 704x528 (4:3), 25 fps, XviD ~ 1964 kbps avg, 0.211 bit/pixel
Аудио: 48 kHz, Dolby Digital AC3 2.0, 192 kbps

Раздача от:
Общее
Полное имя : Otcy.i.deti.1958.DVDRip_[New-team]_by_AVP_Studio.avi
Формат : AVI
Формат/Информация : Audio Video Interleave
Размер файла : 1,46 Гбайт
Продолжительность : 1 ч. 36 м.
Общий поток : 2165 Кбит/сек
Программа кодирования : VirtualDubMod 1.5.10.3 | www.virtualdub-fr.org || (build 2550/release)
Библиотека кодирования : VirtualDubMod build 2550/release

Видео
Идентификатор : 0
Формат : MPEG-4 Visual
Профиль формата : Advanced Simple@L5
Параметр BVOP формата : 1
Параметр QPel формата : Нет
Параметр GMC формата : Без точки перехода
Параметр матрицы формата : Выборочная
Идентификатор кодека : XVID
Идентификатор кодека/Подсказка : XviD
Продолжительность : 1 ч. 36 м.
Битрейт : 1964 Кбит/сек
Ширина : 704 пикселя
Высота : 528 пикселей
Соотношение сторон : 4:3
Частота кадров : 25,000 кадров/сек
Цветовое пространство : YUV
Субдискретизация насыщенности : 4:2:0
Битовая глубина : 8 бит
Тип развёртки : Прогрессивная
Метод сжатия : С потерями
Бит/(Пиксели*Кадры) : 0.211
Размер потока : 1,32 Гбайт (91%)
Библиотека кодирования : XviD 73

Аудио
Идентификатор : 1
Формат : AC-3
Формат/Информация : Audio Coding 3
Параметр Endianness формата : Big
Идентификатор кодека : 2000
Продолжительность : 1 ч. 36 м.
Вид битрейта : Постоянный
Битрейт : 192 Кбит/сек
Каналы : 2 канала
Расположение каналов : Front: L R
Частота : 48,0 КГц
Частота кадров : 31,250 кадров/сек (1536 SPF)
Битовая глубина : 16 бит
Метод сжатия : С потерями
Размер потока : 133 Мбайт (9%)
Выравнивание : Разделение по промежуткам
Продолжительность промежутка : 40 мс. (1,00 видеокадр)
Время предзагрузки промежутка : 500 мс
pb.wtf



Скачать Отцы и дети через торрент http://s018.radikal.ru/i528/1708/cb/f0fd377b78ef.png Скачать фильм Отцы и дети через торрент бесплантно в хорошем качестве Описание:По одноименному роману И.С. Тургенева.Проблема "отцов и детей" — проблема вечная. Конфликт неизбежен всякий раз, когда ... 5 10 1
Info! Золотая раздача, скачанное не засчитывается.
Торрент: Зарегистрирован [2017-08-31 09:02] · скачан: 24 раз
Статус: √ проверено
Размер: 1.46 GB
Как cкачать? Как скачать Отцы и дети через торрент | qTorrent

% Раздел Тема Автор DL S | L
Детективы, Боевики, Триллеры [ 413 MB ] Анна и Сергей Литвиновы - Грехи отцов отпустят дети [Аравушкин Александр 2019 128 kbps MP3] bober100 Скачать
1 | 0
Кино СССР [ 1.46 GB ] Отцы и дети [1958 СССР история SATRip-AVC от AVP Studio] AVP Studio Скачать
1 | 0
Кино СССР [ 745 MB ] Отцы и дети [1958 СССР история SATRip от AVP Studio] AVP Studio Скачать
1 | 0


>> Регистрируемся здесь <<






Отзывы и комментарии о схеме читаем и пишем здесь: ---> Отзывы и комментарии о схеме

Новые благодарочки в телеграм довольных пользователей:
скриншот   скриншот   скриншот   скриншот   скриншот
    Дорогой пользователь! Огромная просьба, поблагодарите релизера, оцените раздачу и оставьте свои комментарий, если Вы скачали Отцы и дети через торрент бесплатно! Внесите свою лепту в развитие PiratBit!
    Комментировать посты могут только пользователи прошедшие не сложную регистрацию
    Показать сообщения:    

    Отцы и дети через торрент
    Скачать бесплатно Отцы и дети
    Отцы и дети скачать торрент
    Отцы и дети смотреть онлайн
    Cкачать фильм Отцы и дети бесплатно
    Отцы и дети скачать торрент в хорошем качестве
    Отцы и дети смотреть онлайн бесплатно в хорошем качестве


    Вы не можете начинать темы
    Вы не можете отвечать на сообщения
    Вы не можете редактировать свои сообщения
    Вы не можете удалять свои сообщения
    Вы не можете голосовать в опросах
    Вы не можете прикреплять файлы к сообщениям
    Вы можете скачивать файлы