Ссылка на приватное зеркало всего за 1$. Внимание количество ограничено!!!

iTunes

iTunes

iTunes

1

iTunes

iTunes

iTunes

iTunes

iTunes

30
pack

$ от Little Big

ВАЖНО

!!Акция!!

Alien_RageХит недели

RePack

Resident Evil 21

ИГРА 18+

pack

RePack

jed

!!Акция!!

Alien_Rage

RePack

fifa19

RePack

Assassins Creed: Odyssey

RePack

NEED FOR SPEED™ PAYBACK

4 сезон

9 сезон

Бесстыжие 9 сезон

Все сериалы

все сериалы на PB.wtf

RePack

FAR CRY 5
  

Грейсфилд / The Gracefield Incident (Матье Рэтхи) [2017, Фантастика, ужасы, боевик, триллер, детектив, WEB-DL 720p] DUB [iTunes] pb.wtf

Грейсфилд через торрент pb.wtf

Размер: 2.88 GB | Добавлен: 2 года 10 мес. назад | Торрент скачан:255 раз
Скачать  

31-08-2017 11:10 Грейсфилд Скачать торрент  

Грейсфилд / The Gracefield IncidentГод выпуска: 2017
Страна: США, Канада
Жанр: Фантастика, ужасы, боевик, триллер, детектив
Продолжительность: 01:25:01
Перевод: Дубляж iTunes
Субтитры: отсутствуют

Режиссер: Матье Рэтхи

rating

В ролях:

Лоуренс Дофинаис, Джульетт Госселин, Лори Грэхэм, Кимберли Лаферрье, Алекс С. Нати, Матье Рэтхи, Виктор Трелье

Описание:

В центре сюжета находится разработчик видеоигр Мэтт Донован, который вместе с пятью своими друзьями решает отправиться в комфортабельный загородный дом, чтобы как следует отдохнуть. Запечатлеть безудержное веселье Мэтту помогает видеокамера, встроенная в его глазном протезе. Неожиданно в процессе отрыва ребята слышат громкий звук, раздавшийся в лесу, замечают необычное свечение в ночном небе и нечто, упавшее с прямо неподалеку от их домика. Отправившись на поиски объекта, от которого исходит ужасный шум, друзья обнаруживают в лесу упавший метеорит. Не в силах сдержать любопытства, молодые люди начинают осматривать и ощупывать метеорит, не подозревая, что Землю прибыли агрессивно настроенные инопланетяне, а их отдых в итоге превратится в отчаянную борьбу за выживание.

Качество: WEB-DL 720p
Формат: MKV
Видео кодек: H.264
Аудио кодек: AC3

Видео: 4074 kb/s, 1280x544, 23.976 fps
Аудио#1: Russian: AC3, 384 kb/s (6 ch)
Аудио#2: English: AC3, 384 kb/s (6 ch)
скриншот   скриншот   скриншот  

Общее
Уникальный идентификатор : 170434269492553435051846543317964978056 (0x80387241CD1E25CABC874CC526147788)
Полное имя : D:\Gracefield..2017.D.WEB-DL.72Op.mkv
Формат : Matroska
Версия формата : Version 2
Размер файла : 2,88 Гбайт
Продолжительность : 1 ч. 25 м.
Общий поток : 4843 Кбит/сек
Дата кодирования : UTC 2017-08-30 18:06:52
Программа кодирования : mkvmerge v8.3.0 ('Over the Horizon') 64bit
Библиотека кодирования : libebml v1.3.1 + libmatroska v1.4.2

Видео
Идентификатор : 1
Формат : AVC
Формат/Информация : Advanced Video Codec
Профиль формата : High@L4.1
Параметр CABAC формата : Да
Параметр ReFrames формата : 4 кадра
Идентификатор кодека : V_MPEG4/ISO/AVC
Продолжительность : 1 ч. 25 м.
Битрейт : 4074 Кбит/сек
Ширина : 1280 пикселей
Высота : 544 пикселя
Соотношение сторон : 2,35:1
Режим частоты кадров : Постоянный
Частота кадров : 23,976 (24000/1001) кадра/сек
Цветовое пространство : YUV
Субдискретизация насыщенности : 4:2:0
Битовая глубина : 8 бит
Тип развёртки : Прогрессивная
Бит/(Пиксели*Кадры) : 0.244
Размер потока : 2,42 Гбайт (84%)
Default : Да
Forced : Нет

Аудио #1
Идентификатор : 2
Формат : AC-3
Формат/Информация : Audio Coding 3
Расширение режима : CM (complete main)
Параметр Endianness формата : Big
Идентификатор кодека : A_AC3
Продолжительность : 1 ч. 25 м.
Вид битрейта : Постоянный
Битрейт : 384 Кбит/сек
Каналы : 6 каналов
Расположение каналов : Front: L C R, Side: L R, LFE
Частота : 48,0 КГц
Частота кадров : 31,250 кадров/сек (1536 spf)
Метод сжатия : С потерями
Размер потока : 234 Мбайт (8%)
Язык : Russian
Default : Да
Forced : Нет

Аудио #2
Идентификатор : 3
Формат : AC-3
Формат/Информация : Audio Coding 3
Расширение режима : CM (complete main)
Параметр Endianness формата : Big
Идентификатор кодека : A_AC3
Продолжительность : 1 ч. 25 м.
Вид битрейта : Постоянный
Битрейт : 384 Кбит/сек
Каналы : 6 каналов
Расположение каналов : Front: L C R, Side: L R, LFE
Частота : 48,0 КГц
Частота кадров : 31,250 кадров/сек (1536 spf)
Метод сжатия : С потерями
Размер потока : 234 Мбайт (8%)
Язык : English
Default : Нет
Forced : Нет

Текст
Идентификатор : 4
Формат : UTF-8
Идентификатор кодека : S_TEXT/UTF8
Идентификатор кодека/Информация : UTF-8 Plain Text
Продолжительность : 1 ч. 20 м.
Битрейт : 65 бит/сек
Count of elements : 1284
Размер потока : 38,7 Кбайт (0%)
Язык : English
Default : Нет
Forced : Нет

Меню
00:00:00.000 : en:Opening Sequence
00:08:46.000 : en:Lost Reception
00:14:54.000 : en:Debris
00:20:33.000 : en:Caught
00:26:13.000 : en:What Was That?
00:32:57.000 : en:A Bigfoot
00:40:07.000 : en:Creature In The Cabin
00:47:24.000 : en:In The Forest
00:56:26.000 : en:The Balloons
01:04:25.000 : en:Five Hours Before Sunset
01:10:46.000 : en:The Farm
01:19:07.000 : en:End Credits

pb.wtf



Скачать Грейсфилд через торрент http://i92.fastpic.ru/big/2017/0831/7c/ae8abc7a5ee212528287cdef475cf37c.jpg Скачать фильм Грейсфилд через торрент бесплантно в хорошем качестве Описание: В центре сюжета находится разработчик видеоигр Мэтт Донован, который вместе с пятью своими друзьями решает отправиться в ... 8.2 10 10
Торрент: Зарегистрирован [2017-08-31 11:10] · скачан: 255 раз
Статус: √ проверено
Размер: 2.88 GB
Как cкачать? Как скачать Грейсфилд через торрент | qTorrent

% Раздел Тема Автор DL S | L
Фильмы [HD 720p, 1080p] (Хороший звук DUB, MVO) [ 9.22 GB ] Грейсфилд / The Gracefield Incident [2017 BDRip 1080p] bober100 Скачать
1 | 0
Фильмы 2017 [DVDrip, WEB-DLRip, HDrip] (DUB, MVO) [ 1.42 GB ] Грейсфилд / The Gracefield Incident [2017 BDRip] - Twi7ter Скачать
1 | 0
Фильмы 2017 [DVDrip, WEB-DLRip, HDrip] (DUB, MVO) [ 2.54 GB ] Грейсфилд / The Gracefield Incident [2017 BDRip-AVC] bober100 Скачать
1 | 0

28-11-2019 20:33  

Отключить всю рекламу на сайте

01-09-2017 17:41 Грейсфилд Скачать торрент  

Смотрибельность 5 из 10 с большой натяжкой, актеры явно не профессионалы и постоянно переигрывают , сцены с гуманоидом просто за уши вытянули фильмpb.wtf



29-09-2017 17:04 Грейсфилд Скачать торрент  

zharovroma писал(а):

Смотрибельность 5 из 10 с большой натяжкой, актеры явно не профессионалы и постоянно переигрывают , сцены с гуманоидом просто за уши вытянули фильм

ага... а особенно почти концовка)pb.wtf



    Дорогой пользователь! Огромная просьба, поблагодарите релизера, оцените раздачу и оставьте свои комментарий, если Вы скачали Грейсфилд через торрент бесплатно! Внесите свою лепту в развитие PiratBit!
    Комментировать посты могут только пользователи прошедшие не сложную регистрацию
    Показать сообщения:    

    Грейсфилд через торрент
    Скачать бесплатно Грейсфилд
    Грейсфилд скачать торрент
    Грейсфилд смотреть онлайн
    Cкачать фильм Грейсфилд бесплатно
    Грейсфилд скачать торрент в хорошем качестве
    Грейсфилд смотреть онлайн бесплатно в хорошем качестве


    Вы не можете начинать темы
    Вы не можете отвечать на сообщения
    Вы не можете редактировать свои сообщения
    Вы не можете удалять свои сообщения
    Вы не можете голосовать в опросах
    Вы не можете прикреплять файлы к сообщениям
    Вы можете скачивать файлы