Ссылка на приватное зеркало нашего сайта всего за 1$. Внимание количество ограничено!!!

2 сезон

iTunes

1 сезон

1

2 сезон

2 сезон

iTunes

1 сезон

RePack

30

Новинка

ВАЖНО

ИГРА 18+

pack

RePack

MK11
pack

Забери бонус

RePack

jed

!!Акция!!

Alien_Rage

RePack

fifa19

RePack

Assassins Creed: Odyssey

RePack

NEED FOR SPEED™ PAYBACK

4 сезон

9 сезон

Бесстыжие 9 сезон

Все сериалы

все сериалы на PB.wtf

RePack

FAR CRY 5
  

Охотник с Уолл-стрит / The Headhunter's Calling (Марк Уильямс) [2016, драма, BD Remux 1080] DUB [iTunes] pb.wtf

Охотник с Уолл-стрит через торрент pb.wtf

Размер: 15.82 GB | Добавлен: 3 года 2 мес. назад | Торрент скачан:51 раз
Скачать  

31-08-2017 12:32 Охотник с Уолл-стрит Скачать торрент  

Охотник с Уолл-стрит / The Headhunter's CallingГод выпуска: 2016
Страна: США, Вьетнам
Жанр: драма
Продолжительность: 01:45:43
Перевод: Дубляж iTunes
Субтитры: английские

Режиссер: Марк Уильямс

rating

В ролях:

Элисон Бри, Джерард Батлер, Уиллем Дефо, Гретхен Мол, Дастин Миллиган, Альфред Молина, Кэтлин Манро, Джулия Баттерз, Анупам Кхер, Синди Дэй

Описание:

Фильм повествует о нелёгких буднях беспринципного "охотника за головами" Дэйна Дженсена (Джерард Батлер), менеджера крупной рекрутинговой компании, чей босс уходит на пенсию и освобождает своё место для молодого и инициативного сотрудника. Получив желаемую должность, Дэйн полностью концетрируется на работе, но получает настоящий удар судьбы - у его десятилетнего сына диагностируют рак. С этого момента его мечта стать владельцем собственной крупной компании уже не кажется достижимой, герой оказывается перед выбором: семья или карьера.

Качество: BD Remux 1080
Формат: MKV
Видео кодек: H.264
Аудио кодек: AC3/DTS-HD MA

Видео: MPEG-4 AVC, 1920x1080, 19.0 Mbit/s, 25.000 fps
Аудио#1: 48 kHz, AC3, 5.1, 384 Kbps | Дублированный | RUS |
Аудио#2: 48 kHz, DTS-HD MA, 5.1, 2046 Kbps | Оригинал | ENG |
скриншот   скриншот   скриншот   скриншот   скриншот  

General
Unique ID : 201680566364838601215550817772972549427 (0x97BA43A25E6CBE7E87C02EC23E9C2533)
Complete name : F:VideoA.Family.Man.2016.BDREMUX.1080p.ExKinoRay.mkv
Format : Matroska
Format version : Version 4 / Version 2
File size : 15.8 GiB
Duration : 1 h 45 min
Overall bit rate mode : Variable
Overall bit rate : 21.4 Mb/s
Encoded date : UTC 2017-08-30 22:10:49
Writing application : mkvmerge v15.0.0 ('Duel with the Devil') 64-bit
Writing library : libebml v1.3.5 + libmatroska v1.4.5

Video
ID : 1
Format : AVC
Format/Info : Advanced Video Codec
Format profile : High@L4.1
Format settings, CABAC : Yes
Format settings, RefFrames : 3 frames
Codec ID : V_MPEG4/ISO/AVC
Duration : 1 h 45 min
Bit rate mode : Variable
Bit rate : 19.0 Mb/s
Maximum bit rate : 35.0 Mb/s
Width : 1 920 pixels
Height : 1 080 pixels
Display aspect ratio : 16:9
Frame rate mode : Constant
Frame rate : 25.000 FPS
Standard : NTSC
Color space : YUV
Chroma subsampling : 4:2:0
Bit depth : 8 bits
Scan type : MBAFF
Bits/(Pixel*Frame) : 0.366
Stream size : 14.0 GiB (89%)
Language : English
Default : No
Forced : No
Color range : Limited
Color primaries : BT.709
Transfer characteristics : BT.709
Matrix coefficients : BT.709

Audio #1
ID : 2
Format : AC-3
Format/Info : Audio Coding 3
Format settings, Endianness : Big
Codec ID : A_AC3
Duration : 1 h 45 min
Bit rate mode : Constant
Bit rate : 384 kb/s
Channel(s) : 6 channels
Channel positions : Front: L C R, Side: L R, LFE
Sampling rate : 48.0 kHz
Frame rate : 31.250 FPS (1536 SPF)
Bit depth : 16 bits
Compression mode : Lossy
Stream size : 290 MiB (2%)
Title : iTunes
Language : Russian
Service kind : Complete Main
Default : Yes
Forced : No

Audio #2
ID : 3
Format : DTS
Format/Info : Digital Theater Systems
Format profile : HRA / Core
Mode : 16
Format settings, Endianness : Big
Codec ID : A_DTS
Duration : 1 h 45 min
Bit rate mode : Constant
Bit rate : 2 046 kb/s / 1 509 kb/s
Channel(s) : 6 channels
Channel positions : Front: L C R, Side: L R, LFE
Sampling rate : 48.0 kHz
Frame rate : 93.750 FPS (512 SPF)
Bit depth : 24 bits
Compression mode : Lossy
Stream size : 1.51 GiB (10%)
Title : Original
Language : English
Default : No
Forced : No

Text
ID : 4
Format : UTF-8
Codec ID : S_TEXT/UTF8
Codec ID/Info : UTF-8 Plain Text
Duration : 1 h 40 min
Bit rate : 68 b/s
Count of elements : 1505
Stream size : 50.3 KiB (0%)
Title : Full
Language : English
Default : No
Forced : No

Menu
00:00:00.000 : en:00:00:00.000
00:08:18.707 : en:00:08:18.707
00:13:18.923 : en:00:13:18.923
00:19:31.462 : en:00:19:31.462
00:24:40.145 : en:00:24:40.145
00:28:54.107 : en:00:28:54.107
00:35:41.389 : en:00:35:41.389
00:39:36.040 : en:00:39:36.040
00:47:00.067 : en:00:47:00.067
00:50:57.638 : en:00:50:57.638
00:56:49.740 : en:00:56:49.740
01:00:43.849 : en:01:00:43.849
01:08:58.009 : en:01:08:58.009
01:16:03.851 : en:01:16:03.851
01:19:38.440 : en:01:19:38.440
01:23:16.408 : en:01:23:16.408
01:26:26.848 : en:01:26:26.848
01:33:34.943 : en:01:33:34.943
01:37:02.984 : en:01:37:02.984
01:39:47.982 : en:01:39:47.982

pb.wtf



Скачать Охотник с Уолл-стрит через торрент http://s41.radikal.ru/i091/1708/64/835269f26a43.jpg Скачать фильм Охотник с Уолл-стрит через торрент бесплантно в хорошем качестве Описание: Фильм повествует о нелёгких буднях беспринципного "охотника за головами" Дэйна Дженсена (Джерард Батлер), менеджера крупной ... 10 10 3
Info! Золотая раздача, скачанное не засчитывается.
Торрент: Зарегистрирован [2017-08-31 12:32] · скачан: 51 раз
Статус: √ проверено
Размер: 15.82 GB
Как cкачать? Как скачать Охотник с Уолл-стрит через торрент | qTorrent

28-11-2019 20:33  

Отключить всю рекламу на сайте

    Дорогой пользователь! Огромная просьба, поблагодарите релизера, оцените раздачу и оставьте свои комментарий, если Вы скачали Охотник с Уолл-стрит через торрент бесплатно! Внесите свою лепту в развитие PiratBit!
    Комментировать посты могут только пользователи прошедшие не сложную регистрацию
    Показать сообщения:    

    Охотник с Уолл-стрит через торрент
    Скачать бесплатно Охотник с Уолл-стрит
    Охотник с Уолл-стрит скачать торрент
    Охотник с Уолл-стрит смотреть онлайн
    Cкачать фильм Охотник с Уолл-стрит бесплатно
    Охотник с Уолл-стрит скачать торрент в хорошем качестве
    Охотник с Уолл-стрит смотреть онлайн бесплатно в хорошем качестве


    Вы не можете начинать темы
    Вы не можете отвечать на сообщения
    Вы не можете редактировать свои сообщения
    Вы не можете удалять свои сообщения
    Вы не можете голосовать в опросах
    Вы не можете прикреплять файлы к сообщениям
    Вы можете скачивать файлы