Ссылка на приватное зеркало нашего сайта всего за 1$. Внимание количество ограничено!!!

2 сезон

iTunes

1 сезон

1

iTunes

iTunes

iTunes

1 сезон

RePack

30

ИГРА 18+

pack

ВАЖНО

!!Акция!!

Alien_RageХит недели

RePack

MK11
pack

Забери бонус

RePack

jed

!!Акция!!

Alien_Rage

RePack

fifa19

RePack

Assassins Creed: Odyssey

RePack

NEED FOR SPEED™ PAYBACK

4 сезон

9 сезон

Бесстыжие 9 сезон

Все сериалы

все сериалы на PB.wtf

RePack

FAR CRY 5
  

Чужой: Завет / Alien: Covenant (Ридли Скотт) [2017, Фантастика, триллер, ужасы, BDRip 1080p] DUB+MVO+AVO+VO [Лицензия] pb.wtf

Чужой: Завет через торрент pb.wtf

Размер: 17.08 GB | Добавлен: 3 года 1 мес. назад | Торрент скачан:801 раз
Скачать  

01-09-2017 07:02 Чужой: Завет Скачать торрент  

Чужой: Завет / Alien: CovenantГод выпуска: 2017
Страна: США, Австралия, Новая Зеландия, Великобритания
Жанр: Фантастика, триллер, ужасы
Продолжительность: 02:02:03

Перевод:

Профессиональный (полное дублирование) | Blu-ray EUR
Любительский (многоголосый, закадровый) | Paradox&Omskbird records
Авторский (одноголосый, закадровый) | Матвеев
Любительский (одноголосый, закадровый) | Солодухин


Субтитры:

Русские (форсированные + полные 2 вида),
Английские (полные, SDH, SDH-Colored)


Режиссер: Ридли Скотт

rating

В ролях:

Майкл Фассбендер, Кэтрин Уотерстон, Билли Крадап, Дэнни МакБрайд, Демиан Бишир, Кармен Эджого, Джусси Смоллетт, Калли Эрнандес, Эми Саймец, Натаниель Дин, Александр Инглэнд, Бенжамин Ригби, Ули Латукефу, Тесс Хобрич, Лорелей Кинг, Горан Д’Клюе

Описание:

2104 год. Колониальный корабль "Завет" с живыми людьми на борту бороздит просторы большого космоса на пути к неосвоенной целине. Попав в нейтринную вспышку и отделавшись легким испугом, экипаж получает загадочный сигнал с неизвестной планеты, на которой есть все условия для жизни. После непродолжительных колебаний команда прокладывает новый курс к источнику сигнала и вскоре оказывается в земном раю посреди рекордного урожая пшеницы. Однако, головокружение от успехов прерывает встреча с жертвами отсутствия генетического контроля и единственным выжившим членом экспедиции "Прометея" - андроидом Дэвидом. Неизведанный рай оборачивается суицидальным кошмаром с жестоким надругательством над психикой, купанием в соляной кислоте и поиском духовного смысла.


Качество: BDRip 1080p
Формат: MKV
Видео кодек: H.264
Аудио кодек: AC3/DTS

Видео: 1920x800 (2,40:1), 23.976 fps, MPEG-4 AVC ~ 16,0 Мbps avg, 0.435 bit/pixel
Аудио#1: DTS, 48,0 kHz, 6 ch, ~768.00 kbps avg | русский | Профессиональный (полное дублирование) | Blu-ray EUR
Аудио#2: АС3, 48,0 kHz, 6 ch, ~640.00 kbps avg | русский | Любительский (многоголосый, закадровый | Paradox&Omskbird records
Аудио#3: АС3, 48,0 kHz, 6 ch, ~640.00 kbps avg | русский | Авторский (одноголосый, закадровый) | Матвеев
Аудио#4: АС3, 48,0 kHz, 6 ch, ~448.00 kbps avg | русский | Любительский (одноголосый, закадровый) | Солодухин
Аудио#5: DTS-ES, 48,0 kHz, 6 ch, ~1509.00 kbps avg | английский | Оригинал
скриншот   скриншот   скриншот   скриншот   скриншот  

Общее
Уникальный идентификатор : 236877363740844109006434529349339731297 (0xB234EBB96439C6F584923641FA585561)
Полное имя : Alien.Covenant.2017.1080p.BluRay.Rus.Eng.mkv
Формат : Matroska
Версия формата : Version 4 / Version 2
Размер файла : 17,1 Гбайт
Продолжительность : 2 ч. 2 м.
Общий поток : 20,0 Мбит/сек
Название фильма : Alien.Covenant.2017.1080p.BluRay.Rus.Eng
Дата кодирования : UTC 2017-08-31 21:52:39
Программа кодирования : mkvmerge v9.7.1 ('Pandemonium') 64bit
Библиотека кодирования : libebml v1.3.4 + libmatroska v1.4.5

Видео
Идентификатор : 1
Формат : AVC
Формат/Информация : Advanced Video Codec
Профиль формата : High@L4.1
Параметр CABAC формата : Да
Параметр ReFrames формата : 5 кадров
Идентификатор кодека : V_MPEG4/ISO/AVC
Продолжительность : 2 ч. 2 м.
Битрейт : 16,0 Мбит/сек
Ширина : 1920 пикселей
Высота : 800 пикселей
Соотношение сторон : 2,40:1
Режим частоты кадров : Постоянный
Частота кадров : 23,976 (24000/1001) кадра/сек
Цветовое пространство : YUV
Субдискретизация насыщенности : 4:2:0
Битовая глубина : 8 бит
Тип развёртки : Прогрессивная
Бит/(Пиксели*Кадры) : 0.435
Размер потока : 13,7 Гбайт (80%)
Заголовок : Alien.Covenant.2017.1080p.BluRay.Rus.Eng
Библиотека кодирования : x264 core 152 r2851 ba24899
Настройки программы : cabac=1 / ref=5 / deblock=1:-3:-3 / analyse=0x3:0x113 / me=umh / subme=10 / psy=1 / psy_rd=1.04:0.00 / mixed_ref=1 / me_range=32 / chroma_me=1 / trellis=2 / 8x8dct=1 / cqm=1 / deadzone=21,11 / fast_pskip=0 / chroma_qp_offset=-1 / threads=12 / lookahead_threads=2 / sliced_threads=0 / nr=0 / decimate=1 / interlaced=0 / bluray_compat=0 / constrained_intra=0 / bframes=8 / b_pyramid=2 / b_adapt=2 / b_bias=0 / direct=3 / weightb=1 / open_gop=0 / weightp=2 / keyint=230 / keyint_min=23 / scenecut=40 / intra_refresh=0 / rc_lookahead=40 / rc=crf / mbtree=0 / crf=15.9 / qcomp=0.65 / qpmin=10 / qpmax=69 / qpstep=4 / vbv_maxrate=62500 / vbv_bufsize=78125 / crf_max=0.0 / nal_hrd=none / filler=0 / ip_ratio=1.30 / pb_ratio=1.20 / aq=1:0.75
Язык : English
Default : Да
Forced : Нет

Аудио #1
Идентификатор : 2
Формат : DTS
Формат/Информация : Digital Theater Systems
Режим : 16
Параметр Endianness формата : Big
Идентификатор кодека : A_DTS
Продолжительность : 2 ч. 2 м.
Вид битрейта : Постоянный
Битрейт : 768 Кбит/сек
Каналы : 6 каналов
Расположение каналов : Front: L C R, Side: L R, LFE
Частота : 48,0 КГц
Частота кадров : 93,750 кадра/сек (512 spf)
Битовая глубина : 24 бит
Метод сжатия : С потерями
Размер потока : 670 Мбайт (4%)
Заголовок : [DUB} Blu-ray EUR
Язык : Russian
Default : Да
Forced : Нет

Аудио #2
Идентификатор : 3
Формат : AC-3
Формат/Информация : Audio Coding 3
Параметр Endianness формата : Big
Идентификатор кодека : A_AC3
Продолжительность : 2 ч. 2 м.
Вид битрейта : Постоянный
Битрейт : 640 Кбит/сек
Каналы : 6 каналов
Расположение каналов : Front: L C R, Side: L R, LFE
Частота : 48,0 КГц
Частота кадров : 31,250 кадров/сек (1536 spf)
Битовая глубина : 16 бит
Метод сжатия : С потерями
Размер потока : 559 Мбайт (3%)
Заголовок : MVO ["Paradox" & Omskbird records]
Язык : Russian
Default : Нет
Forced : Нет

Аудио #3
Идентификатор : 4
Формат : AC-3
Формат/Информация : Audio Coding 3
Параметр Endianness формата : Big
Идентификатор кодека : A_AC3
Продолжительность : 2 ч. 2 м.
Вид битрейта : Постоянный
Битрейт : 640 Кбит/сек
Каналы : 6 каналов
Расположение каналов : Front: L C R, Side: L R, LFE
Частота : 48,0 КГц
Частота кадров : 31,250 кадров/сек (1536 spf)
Битовая глубина : 16 бит
Метод сжатия : С потерями
Размер потока : 559 Мбайт (3%)
Заголовок : [AVO] A.Matveev [UNCENSORED]
Язык : Russian
Default : Нет
Forced : Нет

Аудио #4
Идентификатор : 5
Формат : AC-3
Формат/Информация : Audio Coding 3
Параметр Endianness формата : Big
Идентификатор кодека : A_AC3
Продолжительность : 2 ч. 2 м.
Вид битрейта : Постоянный
Битрейт : 448 Кбит/сек
Каналы : 6 каналов
Расположение каналов : Front: L C R, Side: L R, LFE
Частота : 48,0 КГц
Частота кадров : 31,250 кадров/сек (1536 spf)
Битовая глубина : 16 бит
Метод сжатия : С потерями
Размер потока : 391 Мбайт (2%)
Заголовок : [VO] Е.Солодухин
Язык : Russian
Default : Нет
Forced : Нет

Аудио #5
Идентификатор : 6
Формат : DTS
Формат/Информация : Digital Theater Systems
Профиль формата : ES Matrix / Core
Режим : 16
Параметр Endianness формата : Big
Идентификатор кодека : A_DTS
Продолжительность : 2 ч. 2 м.
Вид битрейта : Постоянный
Битрейт : 1509 Кбит/сек
Каналы : 7 каналов / 6 каналов
Расположение каналов : Front: L C R, Side: L R, Back: C, LFE / Front: L C R, Side: L R, LFE
Частота : 48,0 КГц
Частота кадров : 93,750 кадра/сек (512 spf)
Битовая глубина : 24 бит
Метод сжатия : С потерями
Размер потока : 1,29 Гбайт (8%)
Заголовок : Original
Язык : English
Default : Нет
Forced : Нет

Текст #1
Идентификатор : 7
Формат : UTF-8
Идентификатор кодека : S_TEXT/UTF8
Идентификатор кодека/Информация : UTF-8 Plain Text
Продолжительность : 1 ч. 45 м.
Битрейт : 0 бит/сек
ElementCount : 8
Размер потока : 347 байт (0%)
Заголовок : Forced
Язык : Russian
Default : Да
Forced : Да

Текст #2
Идентификатор : 8
Формат : UTF-8
Идентификатор кодека : S_TEXT/UTF8
Идентификатор кодека/Информация : UTF-8 Plain Text
Продолжительность : 1 ч. 55 м.
Битрейт : 69 бит/сек
ElementCount : 862
Размер потока : 58,9 Кбайт (0%)
Заголовок : A.Matveev [UNCENSORED]
Язык : Russian
Default : Нет
Forced : Нет

Текст #3
Идентификатор : 9
Формат : UTF-8
Идентификатор кодека : S_TEXT/UTF8
Идентификатор кодека/Информация : UTF-8 Plain Text
Продолжительность : 1 ч. 54 м.
Битрейт : 71 бит/сек
ElementCount : 1437
Размер потока : 60,0 Кбайт (0%)
Заголовок : Full
Язык : Russian
Default : Нет
Forced : Нет

Текст #4
Идентификатор : 10
Формат : UTF-8
Идентификатор кодека : S_TEXT/UTF8
Идентификатор кодека/Информация : UTF-8 Plain Text
Продолжительность : 1 ч. 54 м.
Битрейт : 44 бит/сек
ElementCount : 1451
Размер потока : 36,8 Кбайт (0%)
Заголовок : Full
Язык : English
Default : Нет
Forced : Нет

Текст #5
Идентификатор : 11
Формат : UTF-8
Идентификатор кодека : S_TEXT/UTF8
Идентификатор кодека/Информация : UTF-8 Plain Text
Продолжительность : 1 ч. 54 м.
Битрейт : 52 бит/сек
ElementCount : 1709
Размер потока : 44,2 Кбайт (0%)
Заголовок : SDH
Язык : English
Default : Нет
Forced : Нет

Текст #6
Идентификатор : 12
Формат : UTF-8
Идентификатор кодека : S_TEXT/UTF8
Идентификатор кодека/Информация : UTF-8 Plain Text
Продолжительность : 1 ч. 54 м.
Битрейт : 86 бит/сек
ElementCount : 1755
Размер потока : 72,5 Кбайт (0%)
Заголовок : SDH-Colored
Язык : English
Default : Нет
Forced : Нет

Меню
00:00:00.000 : en:Chapter 01
00:04:47.662 : en:Chapter 02
00:13:07.495 : en:Chapter 03
00:18:11.924 : en:Chapter 04
00:22:46.448 : en:Chapter 05
00:27:51.169 : en:Chapter 06
00:33:12.907 : en:Chapter 07
00:37:18.736 : en:Chapter 08
00:42:19.912 : en:Chapter 09
00:47:43.694 : en:Chapter 10
00:52:04.371 : en:Chapter 11
00:55:56.269 : en:Chapter 12
01:00:17.447 : en:Chapter 13
01:06:20.643 : en:Chapter 14
01:11:25.030 : en:Chapter 15
01:16:35.882 : en:Chapter 16
01:21:10.031 : en:Chapter 17
01:28:18.793 : en:Chapter 18
01:31:21.559 : en:Chapter 19
01:34:52.436 : en:Chapter 20
01:39:23.666 : en:Chapter 21
01:43:35.876 : en:Chapter 22
01:50:49.309 : en:Chapter 23
01:55:27.754 : en:Chapter 24

pb.wtf



Скачать Чужой: Завет через торрент http://s002.radikal.ru/i198/1708/f1/ba51bd594c64.jpg Скачать фильм Чужой: Завет через торрент бесплантно в хорошем качестве Описание: 2104 год. Колониальный корабль "Завет" с живыми людьми на борту бороздит просторы большого космоса на пути к неосвоенной целине. ... 9.4 10 14
Info! Золотая раздача, скачанное не засчитывается.
Торрент: Зарегистрирован [2017-09-01 07:02] · скачан: 801 раз
Статус: √ проверено
Размер: 17.08 GB
Как cкачать? Как скачать Чужой: Завет через торрент | qTorrent

% Раздел Тема Автор DL S | L
Фильмы [HD 720p, 1080p] (Хороший звук DUB, MVO) [ 9.19 GB ] Чужой: Завет / Alien: Covenant [2017 BDRip 1080p HEVC ()] Мичман37 Скачать
2 | 0
Фильмы 2017 [DVDrip, WEB-DLRip, HDrip] (DUB, MVO) [ 5.01 GB ] Чужой: Завет / Alien: Covenant [2017 WEB-DLRip-AVC Dub MVO 5 x AVO][Open Matte] от ExKinoRay morfyi Скачать
3 | 0
Ultra HD (UHD: 2K, 4K, 8K) — видео сверхвысокой чёткости [ 20.22 GB ] Чужой: Завет / Alien: Covenant [2017 UHD BDRip 2160p] DUB sheker187 Скачать
1 | 0
Фильмы (Blu-ray, BD-Remux, HDDVD) [ 45.91 GB ] Чужой: Завет / Alien: Covenant [2017 BD Remux 1080p] DUB + MVO + 4xAVO sheker187 Скачать
1 | 0
Фильмы 2017 [DVDrip, WEB-DLRip, HDrip] (DUB, MVO) [ 2.16 GB ] Чужой: Завет / Alien: Covenant [2017 BDRip-AVC] DUB [] - ExKinoRay Enigma2010 Скачать
2 | 0
Ultra HD (UHD: 2K, 4K, 8K) — видео сверхвысокой чёткости [ 43.99 GB ] Чужой: Завет / Alien: Covenant [2017 UHD BDRemux 2160] DUB+AVO [] bober100 Скачать
1 | 0
Фильмы (HD 720p, 1080p) (48-60 fps) [ 4.5 GB ] Чужой: Завет / Alien: Covenant [2017 BDRip 720p 60 fps от еnvy / NNNB] DUB еnvy Скачать
20 | 0

28-11-2019 20:33  

Отключить всю рекламу на сайте

01-09-2017 12:45 Чужой: Завет Скачать торрент  

Рип отличный, в отличии от кино.pb.wtf



01-09-2017 13:35 Чужой: Завет Скачать торрент  

Подскажите, Матвеев цезура или нет?pb.wtf



01-09-2017 14:59 Чужой: Завет Скачать торрент  

tolikss330 писал(а):

Подскажите, Матвеев цезура или нет?

Нетpb.wtf



02-09-2017 16:48 Чужой: Завет Скачать торрент  

Блин, я один не понимаю зачем любительские озвучки если есть дубляж?pb.wtf



03-09-2017 11:45 Чужой: Завет Скачать торрент  

BeRSeRkeR_37rus™, потому что бубляж зачастую зло. В свое время Кравец говорил про бубляж что иногда, чтобы попасть «в губы» актера, локализаторам приходится настолько изменять текст, что теряется смысл. Лично я, если мне фильм очень понравится, то я его пересматриваю только в авторском переводе.pb.wtf



10-09-2017 10:30 Чужой: Завет Скачать торрент  

Средненький фильм, не оправдал ожидания относительно серии чужих.pb.wtf



19-09-2017 20:53 Чужой: Завет Скачать торрент  

Внимание спойлеры (но обзор правдивый)

pb.wtf



25-09-2017 20:53 Чужой: Завет Скачать торрент  

Вполне приличный фильм.pb.wtf



    Дорогой пользователь! Огромная просьба, поблагодарите релизера, оцените раздачу и оставьте свои комментарий, если Вы скачали Чужой: Завет через торрент бесплатно! Внесите свою лепту в развитие PiratBit!
    Комментировать посты могут только пользователи прошедшие не сложную регистрацию
    Показать сообщения:    

    Чужой: Завет через торрент
    Скачать бесплатно Чужой: Завет
    Чужой: Завет скачать торрент
    Чужой: Завет смотреть онлайн
    Cкачать фильм Чужой: Завет бесплатно
    Чужой: Завет скачать торрент в хорошем качестве
    Чужой: Завет смотреть онлайн бесплатно в хорошем качестве


    Вы не можете начинать темы
    Вы не можете отвечать на сообщения
    Вы не можете редактировать свои сообщения
    Вы не можете удалять свои сообщения
    Вы не можете голосовать в опросах
    Вы не можете прикреплять файлы к сообщениям
    Вы можете скачивать файлы