новый адрес пиратбит piratbit
Мега распродажа FORZA HORIZON 4 ULTIMATE+ВСЕ DLC+ОНЛАЙН всего за 499р. 349 руб. (супер цена). Внимание количество ограничено!!!

iTunes

1+1

iTunes

мы

iTunes

1

iTunes

Чернобыль

iTunes

Ральф против интернета

Лицензия

ПШазам

Лицензия

Игра престолов

Лицензия

30
pack

ВАЖНО

!!Акция!!

Alien_RageХит недели

RePack

Resident Evil 21

ИГРА 18+

pack

RePack

Metro:Exodus

!!Акция!!

Alien_Rage

RePack

fifa19

RePack

Assassins Creed: Odyssey

RePack

NEED FOR SPEED™ PAYBACK

3 сезон

9 сезон

Бесстыжие 9 сезон

Все сериалы

все сериалы на PB.wtf

RePack

FAR CRY 5
Ребята, катастрофически не хватает 1900р. для оплаты серверов за Октябрь (всвязи с блокировками трафик упал в 3 раза), 1-2р., выручайте.
  

В твоих руках жизнь (Николай Розанцев) [1958, СССР, драма, SATRip от AVP Studio] pb.wtf

В твоих руках жизнь через торрент pb.wtf

Размер: 746 MB | Добавлен: 2 года 2 мес. назад | Торрент скачан:21 раз
Скачать  

01-09-2017 09:09 В твоих руках жизнь Скачать торрент  

В твоих руках жизнь
Страна: СССР
Производство: Ленфильм

Жанр: драма
Год выпуска: 1958
Продолжительность: 01:25:54

Перевод: Не требуется
Cубтитры: нет
Оригинальная аудиодорожка: русский

Режиссер: Николай Розанцев

В ролях:
Олег Стриженов, Иосиф Кутянский, Виктор Чекмарёв, Анатолий Юшко, Клара Лучко, Марианна Стриженова, Елена Корнилова, Резо (Реваз) Чхеидзе, Тулкун Таджиев, Игорь Ефимов, Арнольд Курбатов, Александр Афанасьев...
Об актёрах подробней

Описание:
По мотивам очерка А.Сахнина «Эхо войны».
Стремительный натиск войск Советской Армии сметал фашистов с нашей земли. Отступая из города Энска, немцы зарыли в одном из его районов склад боеприпасов. И вот спустя пятнадцать лет город снова в опасности. На строительстве нового дома обнаружены снаряды. Каждую минуту они могут взорваться, и тогда погибнет всё, что было построено с таким трудом. Кажется, единственный выход – эвакуировать население и взорвать боеприпасы на месте. Но капитан Дудин (Олег Стриженов) предлагает вывезти снаряды за город и взорвать их там. Пять лучших минёров во главе с Дудиным вышли на борьбу со смертью. Сырая земля плотно сковала туши бомб, снарядов и мин. Нужна величайшая осторожность, огромная выдержка и умение, чтобы извлечь и вывезти изъеденные ржавчиной боеприпасы. Весь день город в напряжении ждал. И только к вечеру отдаленные взрывы известили об удачном окончании операции.

Источник: DVB
Качество видео: SATRip
Формат видео: AVI

Видео: 640x480 (4:3), 25 fps, XviD ~ 1076 kbps avg, 0.140 bit/pixel
Аудио: 48 kHz, MP3 2.0, 128 kbps

Раздача от:
Общее
Полное имя : V.tvoih.rukah.zhizn.1958.SATRip-745_[New-team]_by_AVP_Studio.avi
Формат : AVI
Формат/Информация : Audio Video Interleave
Размер файла : 746 Мбайт
Продолжительность : 1 ч. 25 м.
Общий поток : 1213 Кбит/сек
Программа кодирования : VirtualDubMod 1.5.10.3 | www.virtualdub-fr.org || (build 2550/release)
Библиотека кодирования : VirtualDubMod build 2550/release

Видео
Идентификатор : 0
Формат : MPEG-4 Visual
Профиль формата : Advanced Simple@L5
Параметр BVOP формата : 1
Параметр QPel формата : Нет
Параметр GMC формата : Без точки перехода
Параметр матрицы формата : Выборочная
Идентификатор кодека : XVID
Идентификатор кодека/Подсказка : XviD
Продолжительность : 1 ч. 25 м.
Битрейт : 1076 Кбит/сек
Ширина : 640 пикселей
Высота : 480 пикселей
Соотношение сторон : 4:3
Частота кадров : 25,000 кадров/сек
Цветовое пространство : YUV
Субдискретизация насыщенности : 4:2:0
Битовая глубина : 8 бит
Тип развёртки : Прогрессивная
Метод сжатия : С потерями
Бит/(Пиксели*Кадры) : 0.140
Размер потока : 661 Мбайт (89%)
Библиотека кодирования : XviD 73

Аудио
Идентификатор : 1
Формат : MPEG Audio
Версия формата : Version 1
Профиль формата : Layer 3
Идентификатор кодека : 55
Идентификатор кодека/Подсказка : MP3
Продолжительность : 1 ч. 25 м.
Вид битрейта : Постоянный
Битрейт : 128 Кбит/сек
Каналы : 2 канала
Частота : 48,0 КГц
Метод сжатия : С потерями
Размер потока : 78,7 Мбайт (11%)
Выравнивание : Соединение по промежуткам
Продолжительность промежутка : 40 мс. (1,00 видеокадр)
Время предзагрузки промежутка : 504 мс.
Библиотека кодирования : LAME3.99r
Настройки программы : -m s -V 4 -q 2 -lowpass 17 -b 128
pb.wtf



Скачать В твоих руках жизнь через торрент http://s019.radikal.ru/i617/1708/c3/a396ddba8d1e.png Скачать фильм В твоих руках жизнь через торрент бесплантно в хорошем качестве Описание:По мотивам очерка А.Сахнина «Эхо войны».Стремительный натиск войск Советской Армии сметал фашистов с нашей земли. Отступая из ... 5 10 1
Info! Золотая раздача, скачанное не засчитывается.
Торрент: Зарегистрирован [2017-09-01 09:09] · скачан: 21 раз
Статус: √ проверено
Размер: 746 MB
Как cкачать? Как скачать В твоих руках жизнь через торрент | qTorrent

% Раздел Тема Автор DL S | L
Кино СССР [ 1.09 GB ] В твоих руках жизнь [1958 СССР SATRip-AVC от AVP Studio] AVP Studio Скачать
1 | 0
Кино СССР [ 1.09 GB ] В твоих руках жизнь [1958 СССР SATRip от AVP Studio] AVP Studio Скачать
1 | 0


>> Регистрируемся здесь <<






Отзывы и комментарии о схеме читаем и пишем здесь: ---> Отзывы и комментарии о схеме

Новые благодарочки в телеграм довольных пользователей:
скриншот   скриншот   скриншот   скриншот   скриншот
    Дорогой пользователь! Огромная просьба, поблагодарите релизера, оцените раздачу и оставьте свои комментарий, если Вы скачали В твоих руках жизнь через торрент бесплатно! Внесите свою лепту в развитие PiratBit!
    Комментировать посты могут только пользователи прошедшие не сложную регистрацию
    Показать сообщения:    

    В твоих руках жизнь через торрент
    Скачать бесплатно В твоих руках жизнь
    В твоих руках жизнь скачать торрент
    В твоих руках жизнь смотреть онлайн
    Cкачать фильм В твоих руках жизнь бесплатно
    В твоих руках жизнь скачать торрент в хорошем качестве
    В твоих руках жизнь смотреть онлайн бесплатно в хорошем качестве


    Вы не можете начинать темы
    Вы не можете отвечать на сообщения
    Вы не можете редактировать свои сообщения
    Вы не можете удалять свои сообщения
    Вы не можете голосовать в опросах
    Вы не можете прикреплять файлы к сообщениям
    Вы можете скачивать файлы