Ссылка на приватное зеркало всего за 1$. Внимание количество ограничено!!!

iTunes

iTunes

iTunes

1

iTunes

iTunes

iTunes

iTunes

iTunes

30
pack

$ от Little Big

ВАЖНО

!!Акция!!

Alien_RageХит недели

RePack

Resident Evil 21

ИГРА 18+

pack

RePack

jed

!!Акция!!

Alien_Rage

RePack

fifa19

RePack

Assassins Creed: Odyssey

RePack

NEED FOR SPEED™ PAYBACK

4 сезон

9 сезон

Бесстыжие 9 сезон

Все сериалы

все сериалы на PB.wtf

RePack

FAR CRY 5
  

Мой ангел / Mon ange (Гарри Клевен) [2017, мелодрама, WEB-DL 720p] MVO [Лицензия / iTunes] pb.wtf

Мой ангел через торрент pb.wtf

Размер: 2.47 GB | Добавлен: 2 года 10 мес. назад | Торрент скачан:301 раз
Скачать  

01-09-2017 13:04 Мой ангел Скачать торрент  

Мой ангел / Mon ange
Год выпуска: 2017
Страна: Франция, Бельгия
Жанр: мелодрама
Продолжительность: 01:18:51
Перевод: Профессиональный многоголосый [Лицензия / iTunes]
Субтитры: отсутствуют

Режиссер: Гарри Клевен

rating

В ролях:

Ханна Бодро, Майя Дори, Флер Жеффрие, Элина Ловенсон, Франсуа Винчентелли

Описание:

Ангел — необыкновенный юноша. Он живет уединенно со своей матерью Луизой, и о его существовании никто не знает: Ангел родился невидимкой. Однажды он встречается со своей ровесницей, слепой девушкой Мадлен. Молодые люди влюбляются друг в друга. Они неразлучны и счастливы до тех пор, пока у Мадлен не появляется шанс обрести зрение…

Качество: WEB-DL 720p
Формат: MKV
Видео кодек: H.264
Аудио кодек: AC3

Видео: 1194x720, 24.000 fps, MPEG-4 AVC, ~4099 kbps avg
Аудио: Russian: 48 kHz, AC3, 3/2 (L,C,R,l,r) + LFE ch, ~384.00 kbps avg
скриншот   скриншот   скриншот   скриншот   скриншот  

Общее
Уникальный идентификатор : 253122538370906394002932755141049221891 (0xBE6DA0AC048F9A53A5F0DCAD67B08303)
Полное имя : D:\Mon.ange.2016.P.WEB-DL.720p.mkv
Формат : Matroska
Версия формата : Version 4 / Version 2
Размер файла : 2,47 Гбайт
Продолжительность : 1 ч. 18 м.
Общий поток : 4484 Кбит/сек
Дата кодирования : UTC 2017-09-01 05:53:25
Программа кодирования : mkvmerge v8.3.0 ('Over the Horizon') 64bit
Библиотека кодирования : libebml v1.3.1 + libmatroska v1.4.2

Видео
Идентификатор : 1
Формат : AVC
Формат/Информация : Advanced Video Codec
Профиль формата : High@L3.1
Параметр CABAC формата : Нет
Параметр ReFrames формата : 2 кадра
Идентификатор кодека : V_MPEG4/ISO/AVC
Продолжительность : 1 ч. 18 м.
Битрейт : 4099 Кбит/сек
Ширина : 1194 пикселя
Высота : 720 пикселей
Соотношение сторон : 5:3
Режим частоты кадров : Постоянный
Частота кадров : 24,000 кадра/сек
Цветовое пространство : YUV
Субдискретизация насыщенности : 4:2:0
Битовая глубина : 8 бит
Тип развёртки : Прогрессивная
Бит/(Пиксели*Кадры) : 0.199
Размер потока : 2,26 Гбайт (91%)
Язык : English
Default : Да
Forced : Нет
Цветовой диапазон : Limited
Основные цвета : BT.709
Характеристики трансфера : BT.709
Коэффициенты матрицы : BT.709

Аудио
Идентификатор : 2
Формат : AC-3
Формат/Информация : Audio Coding 3
Расширение режима : CM (complete main)
Параметр Endianness формата : Big
Идентификатор кодека : A_AC3
Продолжительность : 1 ч. 18 м.
Вид битрейта : Постоянный
Битрейт : 384 Кбит/сек
Каналы : 6 каналов
Расположение каналов : Front: L C R, Side: L R, LFE
Частота : 48,0 КГц
Частота кадров : 31,250 кадров/сек (1536 spf)
Метод сжатия : С потерями
Размер потока : 217 Мбайт (9%)
Язык : Russian
Default : Да
Forced : Нет

Меню
00:00:00.000 : en:Глава 1
00:05:54.083 : en:Глава 2
00:10:57.833 : en:Глава 3
00:17:50.124 : en:Глава 4
00:24:47.665 : en:Глава 5
00:32:11.373 : en:Глава 6
00:39:15.164 : en:Глава 7
00:44:40.914 : en:Глава 8
00:50:24.039 : en:Глава 9
00:57:48.372 : en:Глава 10
01:04:52.622 : en:Глава 11
01:10:59.122 : en:Глава 12
pb.wtf



Скачать Мой ангел через торрент http://pic1.kartinco.top/images/11/cyirw.jpg Скачать фильм Мой ангел через торрент бесплантно в хорошем качестве Описание: Ангел — необыкновенный юноша. Он живет уединенно со своей матерью Луизой, и о его существовании никто не знает: Ангел родился ... 10 10 11
Торрент: Зарегистрирован [2017-09-01 13:04] · скачан: 301 раз
Статус: √ проверено
Размер: 2.47 GB
Как cкачать? Как скачать Мой ангел через торрент | qTorrent

% Раздел Тема Автор DL S | L
T Релизы по Парсеру [Игры, Сериалы и Фильмы и другое...] [ 2.94 GB ] Мой ангел / Mon ange [2016 романтическая WEB-DL 1080p] [MVO] killermax2013 Скачать
1 | 0
Фильмы 2006-2008 [ 1.57 GB ] Моя дочь - заложница / Моя дочь мой ангел / Ma Fille Mon Ange / My Daughter My Angel [2007 DVDRip] 2VO R5 + Original + Sub oartemka178 Скачать
1 | 0

28-11-2019 20:33  

Отключить всю рекламу на сайте

02-09-2017 07:29 Мой ангел Скачать торрент  

тема сисек раскрыта-))))pb.wtf



02-09-2017 09:03 Мой ангел Скачать торрент  

ramilka-master писал(а):

тема сисек раскрыта-))))

Судя по последнему скрину не раскрыта )))pb.wtf



25-10-2017 07:51 Мой ангел Скачать торрент  



pb.wtf



    Дорогой пользователь! Огромная просьба, поблагодарите релизера, оцените раздачу и оставьте свои комментарий, если Вы скачали Мой ангел через торрент бесплатно! Внесите свою лепту в развитие PiratBit!
    Комментировать посты могут только пользователи прошедшие не сложную регистрацию
    Показать сообщения:    

    Мой ангел через торрент
    Скачать бесплатно Мой ангел
    Мой ангел скачать торрент
    Мой ангел смотреть онлайн
    Cкачать фильм Мой ангел бесплатно
    Мой ангел скачать торрент в хорошем качестве
    Мой ангел смотреть онлайн бесплатно в хорошем качестве


    Вы не можете начинать темы
    Вы не можете отвечать на сообщения
    Вы не можете редактировать свои сообщения
    Вы не можете удалять свои сообщения
    Вы не можете голосовать в опросах
    Вы не можете прикреплять файлы к сообщениям
    Вы можете скачивать файлы