Ссылка на приватное зеркало нашего сайта всего за 1$. Внимание количество ограничено!!!

2 сезон

iTunes

1 сезон

1

2 сезон

2 сезон

iTunes

1 сезон

RePack

30

Ultimate

ВАЖНО

ИГРА 18+

pack

RePack

MK11
pack

Забери бонус

RePack

jed

!!Акция!!

Alien_Rage

RePack

fifa19

RePack

Assassins Creed: Odyssey

RePack

NEED FOR SPEED™ PAYBACK

4 сезон

9 сезон

Бесстыжие 9 сезон

Все сериалы

все сериалы на PB.wtf

RePack

FAR CRY 5
  

Нарки / Нарко / Барыги / Narcos / Сезон 3 / Серии 1-10 из 10 (Жозе Падилья, Гильермо Наварро) [2017, Драма, криминал, WEB-DL 720p] DVO [SunshineStudio] pb.wtf

Нарки через торрент pb.wtf

Размер: 10.91 GB | Добавлен: 3 года 2 мес. назад | Торрент скачан:140 раз
Скачать  

01-09-2017 14:39 Нарки Скачать торрент  

Нарки / Нарко / Барыги / NarcosГод выпуска: 2017
Страна: США
Жанр: Драма, криминал
Продолжительность: 10 x ~ 01:00:00
Перевод: Любительский (двухголосый)
Субтитры: отсутствуют

Режиссер: Жозе Падилья, Гильермо Наварро, Фернандо Коибра, Энди Байс

rating

В ролях:

Вагнер Моура, Морис Комт, Джоанна Кристи, Бойд Холбрук, Педро Паскаль, Стефани Сигман, Роберто Урбина, Ана де ла Регера, Даниэль Кеннеди, Диего Катаньо

Описание:

Преступную деятельность будущий влиятельнейший наркобарон Колумбии Пабло Эскобар начал ещё в детстве с воровства и мошенничества, после он перешёл на рэкет, вооружённые налёты и похищение людей. Когда вокруг Пабло сформировалась мощная группировка он решил расширяться в сторону самого перспективного и бездонного рынка - поставки колумбийского кокаина в Соединённые Штаты, где основной проблемой Управления по борьбе с наркотиками до этого момента были лишь добродушные хиппи с их марихуаной. Американские нарки в кратчайшие сроки озолотили юного Пабло и дали ему неограниченную Влacть на родине, где наркобарон, благодаря своим вложениям в местную экономику, стал настоящим героем. Вместе с несколькими влиятельными коллегами Эскобар создаёт Медельинский кокаиновый картель, закупает всевозможную технику для контрабанды своей продукции на север и открывает множество лабораторий по производству белого порошка в безлюдных джунглях. Держа в страхе политиков Колумбии Пабло всегда добивался желаемого любой ценой, предоставляя потенциальным жертвам выбор между получением взятки и пулей в голову.

Качество: WEB-DL 720p
Формат: MKV
Видео кодек: H.264
Аудио кодек: AC3

Видео: MPEG-4 AVC, ~ 2450 Кбит/с, 1280x720
Аудио: Русский (AC3, 2 ch, 192 Кбит/с)
скриншот   скриншот   скриншот   скриншот  

Общее
Уникальный идентификатор : 172354265181100305456657249458722852844 (0x81AA395A6435852093183F9A16BE4FEC)
Полное имя : D:\Narcos.S03.720p.SunshineStudio\Narcos.S03E01.720p.SunshineStudio.mkv
Формат : Matroska
Версия формата : Version 4 / Version 2
Размер файла : 1,02 Гбайт
Продолжительность : 55 м. 7 с.
Общий поток : 2654 Кбит/сек
Дата кодирования : UTC 2017-09-01 12:39:50
Программа кодирования : mkvmerge v8.3.0 ('Over the Horizon') 64bit
Библиотека кодирования : libebml v1.3.1 + libmatroska v1.4.2

Видео
Идентификатор : 1
Формат : AVC
Формат/Информация : Advanced Video Codec
Профиль формата : High@L3.1
Параметр CABAC формата : Да
Параметр ReFrames формата : 4 кадра
Идентификатор кодека : V_MPEG4/ISO/AVC
Продолжительность : 55 м. 6 с.
Битрейт : 2460 Кбит/сек
Ширина : 1280 пикселей
Высота : 720 пикселей
Соотношение сторон : 16:9
Режим частоты кадров : Постоянный
Частота кадров : 23,976 (23976/1000) кадра/сек
Цветовое пространство : YUV
Субдискретизация насыщенности : 4:2:0
Битовая глубина : 8 бит
Тип развёртки : Прогрессивная
Бит/(Пиксели*Кадры) : 0.111
Размер потока : 970 Мбайт (93%)
Библиотека кодирования : x264 core 146 r2538 121396c
Настройки программы : cabac=1 / ref=1 / deblock=1:0:0 / analyse=0x3:0x113 / me=hex / subme=2 / psy=1 / psy_rd=1.00:0.00 / mixed_ref=0 / me_range=16 / chroma_me=1 / trellis=0 / 8x8dct=1 / cqm=0 / deadzone=21,11 / fast_pskip=1 / chroma_qp_offset=0 / threads=9 / lookahead_threads=3 / sliced_threads=0 / nr=0 / decimate=1 / interlaced=0 / bluray_compat=0 / constrained_intra=0 / bframes=3 / b_pyramid=2 / b_adapt=1 / b_bias=0 / direct=1 / weightb=1 / open_gop=0 / weightp=1 / keyint=250 / keyint_min=23 / scenecut=40 / intra_refresh=0 / rc_lookahead=10 / rc=crf / mbtree=1 / crf=18.0 / qcomp=0.60 / qpmin=0 / qpmax=69 / qpstep=4 / ip_ratio=1.40 / aq=1:1.00
Default : Да
Forced : Нет

Аудио
Идентификатор : 2
Формат : AC-3
Формат/Информация : Audio Coding 3
Расширение режима : CM (complete main)
Параметр Endianness формата : Big
Идентификатор кодека : A_AC3
Продолжительность : 55 м. 7 с.
Вид битрейта : Постоянный
Битрейт : 192 Кбит/сек
Каналы : 2 канала
Расположение каналов : Front: L R
Частота : 48,0 КГц
Частота кадров : 31,250 кадров/сек (1536 spf)
Метод сжатия : С потерями
Размер потока : 75,7 Мбайт (7%)
Default : Да
Forced : Нет

Внимание! Раздача ведётся путём добавления новых серий; при каждом добавлении создаётся новый торрент.
Чтобы начать докачку новой серии, пользователям необходимо сделать следующее:
1. Остановить скачивание;
2. Удалить старый торрент у себя из клиента (старые серии удалять не надо);
3. Скачать новый торрент и запустить его у себя в клиенте вместо старого, при этом указать клиенту путь в старую папку куда и должно происходить скачивание новых серий. Ваш клиент при этом должен произвести хеширование (проверку) старой папки и будет докачивать только те серии, которых у вас ещё нет. Старые серии при этом не удаляются, а продолжают раздаваться! Eсли вы уже удалили старые серии, то предотвратить повторную закачку старых серий можно, отжав галочку в соответствующих местах при запуске нового торрента.
pb.wtf



Скачать Нарки через торрент http://i91.fastpic.ru/big/2017/0901/4e/9d74fc488e9e5f8fabecd8e430f9624e.jpg Скачать фильм Нарки через торрент бесплантно в хорошем качестве Описание: Преступную деятельность будущий влиятельнейший наркобарон Колумбии Пабло Эскобар начал ещё в детстве с воровства и мошенничества, ... 8.7 10 7
Info! Серебряная раздача, засчитывается только 50% скачанного.
Торрент: Зарегистрирован [2017-09-01 20:08] · скачан: 140 раз
Статус: √ проверено
Размер: 10.91 GB
Как cкачать? Как скачать Нарки через торрент | qTorrent

% Раздел Тема Автор DL S | L
Зарубежные сериалы [ 14 GB ] Нарки / Нарко / Барыги / Narcos / Сезон: 3 / Серии 1-10 из 10 [2017 WEB-DL 720p] MVO [NewStudio] GEKADOL Скачать
1 | 0
Зарубежные сериалы [ 13.91 GB ] Нарки / Нарко / Барыги / Narcos / Сезон: 3 / Серии 1-10 из 10 [2015 WEBRip 720р] MVO [BaibaKo] GEKADOL Скачать
1 | 0
Зарубежные сериалы [ 6.84 GB ] Нарки / Нарко / Барыги / Narcos / Сезон: 3 / Серии 1-10 из 10 [2017 WEB-DLRip] MVO [NewStudio] GEKADOL Скачать
1 | 0

28-11-2019 20:33  

Отключить всю рекламу на сайте

    Дорогой пользователь! Огромная просьба, поблагодарите релизера, оцените раздачу и оставьте свои комментарий, если Вы скачали Нарки через торрент бесплатно! Внесите свою лепту в развитие PiratBit!
    Комментировать посты могут только пользователи прошедшие не сложную регистрацию
    Показать сообщения:    

    Нарки через торрент
    Скачать бесплатно Нарки
    Нарки скачать торрент
    Нарки смотреть онлайн
    Cкачать фильм Нарки бесплатно
    Нарки скачать торрент в хорошем качестве
    Нарки смотреть онлайн бесплатно в хорошем качестве


    Вы не можете начинать темы
    Вы не можете отвечать на сообщения
    Вы не можете редактировать свои сообщения
    Вы не можете удалять свои сообщения
    Вы не можете голосовать в опросах
    Вы не можете прикреплять файлы к сообщениям
    Вы можете скачивать файлы