1 сезон

1 сезон

iTunes

1

КиноПоиск HD

Кинопоиск HD

iTunes

13

1 сезон

RePack

30

Ultimate

ВАЖНО

ИГРА 18+

pack

RePack

MK11
pack

Легкие деньги

RePack

jed

RePack

fifa19

RePack

RDR2

RePack

NEED FOR SPEED™ PAYBACK

4 сезон

9 сезон

Бесстыжие 9 сезон

Все сериалы

все сериалы на PB.wtf

RePack

FAR CRY 5
  
Magnet ссылка

Робинзон Крузо / Robinson Crusoe (Тьерри Шабер) [2003 г., Приключения, экранизация, DVDRip-AVC, Профессиональный (многоголосый)] от ExKinoRay pb.wtf

Робинзон Крузо через торрент pb.wtf

Размер: 4.64 GB | Добавлен: 3 года 7 мес. назад | Торрент скачан:69 раз
Скачать  

01-09-2017 16:20 Робинзон Крузо Скачать торрент  

Робинзон Крузо / Robinson Crusoe
Год выпуска: 2003
Страна: Канада, Франция, Великобритания
Жанр: Приключения, экранизация
Продолжительность: 01:31:30 + 01:41:03
Перевод: Профессиональный (многоголосый)

Режиссер: Тьерри Шабер

Премьера в мире: 13 декабря 2003

rating

В ролях: Пьер Ришар, Николя Казаль, Жан-Клод Легэ, Мари Беро, Мишель Перрон, Аврора Баснуэо, Улик Анелло, Жан-Бернар Коте, Дженнифер Лоре, Майкл Раддер, Стефани Демерс, Гай Леруа, Жан-Раймон Шале

Описание: Удивительные приключения Робинзона Крузо, моряка из Йорка, прожившего двадцать восемь лет в полном одиночестве на необитаемом острове у берегов Америки близ устьев реки Ориноко, куда он был выброшен кораблекрушением, во время которого весь экипаж корабля, кроме него, погиб.

Качество: DVDRip-AVC
Формат: MKV
Видео кодек: MPEG4
Аудио кодек: AC3
Видео: MPEG-4 AVC, 3000 Кбит/с, 704x460@750x460, 25 кадров/сек
Аудио#1: AC3, 6 ch, 448 Кбит/с, 48 Кгц
Релиз от:




raw [info]: 704x460p 16:15 @ 25/1 fps (cfr)
x264 [info]: using SAR=16/15
x264 [info]: using cpu capabilities: MMX2 SSE2Fast LZCNT
x264 [info]: profile High, level 4.1
x264 [info]: frame I:40 Avg QP:15.87 size: 64708
x264 [info]: frame P:531 Avg QP:18.51 size: 30105
x264 [info]: frame B:1968 Avg QP:20.07 size: 9901
x264 [info]: consecutive B-frames: 2.8% 2.0% 9.2% 15.1% 8.9% 57.4% 1.4% 0.9% 0.4% 0.0% 0.0% 0.0% 0.5% 0.0% 0.0% 0.0% 1.3%
-----
Общее
Уникальный идентификатор : 228944423307599660109922153391192789264 (0xAC3D17904073F404BCE7B87D878BD110)
Полное имя : E:\Robinson.Crusoe.2003.ExKinoRay\Robinson.Crusoe.2003.S2.DVDRip-AVC.ExKinoRay.mkv
Формат : Matroska
Версия формата : Version 2
Размер файла : 2,44 Гбайт
Продолжительность : 1 ч. 41 м.
Общий поток : 3450 Кбит/сек
Дата кодирования : UTC 2017-09-01 13:15:09
Программа кодирования : mkvmerge v7.8.0 ('River Man') 32bit built on Apr 3 2015 12:11:22
Библиотека кодирования : libebml v1.3.1 + libmatroska v1.4.2

Видео
Идентификатор : 1
Формат : AVC
Формат/Информация : Advanced Video Codec
Профиль формата : High@L4.1
Параметр CABAC формата : Да
Параметр ReFrames формата : 14 кадров
Идентификатор кодека : V_MPEG4/ISO/AVC
Продолжительность : 1 ч. 41 м.
Битрейт : 3000 Кбит/сек
Ширина : 704 пикселя
Высота : 460 пикселей
Соотношение сторон : 16:10
Соотношение сторон в оригинале : 16:10
Режим частоты кадров : Постоянный
Частота кадров : 25,000 кадров/сек
Цветовое пространство : YUV
Субдискретизация насыщенности : 4:2:0
Битовая глубина : 8 бит
Тип развёртки : Прогрессивная
Бит/(Пиксели*Кадры) : 0.371
Размер потока : 2,07 Гбайт (85%)
Библиотека кодирования : x264 core 148 r2638 7599210
Настройки программы : cabac=1 / ref=14 / deblock=1:-2:-2 / analyse=0x3:0x133 / me=umh / subme=10 / psy=1 / psy_rd=1.05:0.15 / mixed_ref=1 / me_range=32 / chroma_me=1 / trellis=2 / 8x8dct=1 / cqm=0 / deadzone=21,11 / fast_pskip=0 / chroma_qp_offset=-3 / threads=4 / lookahead_threads=1 / sliced_threads=0 / nr=0 / decimate=0 / interlaced=0 / bluray_compat=0 / constrained_intra=0 / bframes=16 / b_pyramid=2 / b_adapt=2 / b_bias=0 / direct=3 / weightb=1 / open_gop=0 / weightp=2 / keyint=250 / keyint_min=25 / scenecut=40 / intra_refresh=0 / rc=2pass / mbtree=0 / bitrate=3000 / ratetol=1.0 / qcomp=0.60 / qpmin=0 / qpmax=69 / qpstep=4 / cplxblur=20.0 / qblur=0.5 / ip_ratio=1.40 / pb_ratio=1.30 / aq=1:1.00
Язык : English
Default : Да
Forced : Нет
Цветовой диапазон : Limited
Основные цвета : BT.601 NTSC
Характеристики трансфера : BT.601
Коэффициенты матрицы : BT.601

Аудио
Идентификатор : 2
Формат : AC-3
Формат/Информация : Audio Coding 3
Расширение режима : CM (complete main)
Параметр Endianness формата : Big
Идентификатор кодека : A_AC3
Продолжительность : 1 ч. 41 м.
Вид битрейта : Постоянный
Битрейт : 448 Кбит/сек
Каналы : 6 каналов
Расположение каналов : Front: L C R, Side: L R, LFE
Частота : 48,0 КГц
Частота кадров : 31,250 кадров/сек (1536 spf)
Метод сжатия : С потерями
Размер потока : 324 Мбайт (13%)
Default : Да
Forced : Нет

pb.wtf



Скачать Робинзон Крузо через торрент http://s42.radikal.ru/i096/1709/6d/f11cf403e9c4.jpg Скачать фильм Робинзон Крузо через торрент бесплантно в хорошем качестве Описание: Удивительные приключения Робинзона Крузо, моряка из Йорка, прожившего двадцать восемь лет в полном одиночестве на необитаемом ... 10 10 5
Info! Золотая раздача, скачанное не засчитывается.
Торрент: Зарегистрирован [2017-09-01 16:20] · скачан: 69 раз
Статус: √ проверено
Размер: 4.64 GB
Как cкачать? Как скачать Робинзон Крузо через торрент | UTorrent

28-11-2019 20:33  

Отключить всю рекламу на сайте

01-09-2017 18:48 Робинзон Крузо Скачать торрент  

Топик был перенесен из форума Оформление раздач (Кино, Видео и ТВ) в форум Фильмы 2001-2005


Воронpb.wtf



    Дорогой пользователь! Огромная просьба, поблагодарите релизера, оцените раздачу и оставьте свои комментарий, если Вы скачали Робинзон Крузо через торрент бесплатно! Внесите свою лепту в развитие PiratBit!
    Комментировать посты могут только пользователи прошедшие не сложную регистрацию
    Показать сообщения:    

    Робинзон Крузо через торрент
    Скачать бесплатно Робинзон Крузо
    Робинзон Крузо скачать торрент
    Робинзон Крузо смотреть онлайн
    Cкачать фильм Робинзон Крузо бесплатно
    Робинзон Крузо скачать торрент в хорошем качестве
    Робинзон Крузо смотреть онлайн бесплатно в хорошем качестве


    Вы не можете начинать темы
    Вы не можете отвечать на сообщения
    Вы не можете редактировать свои сообщения
    Вы не можете удалять свои сообщения
    Вы не можете голосовать в опросах
    Вы не можете прикреплять файлы к сообщениям
    Вы можете скачивать файлы