Ссылка на приватное зеркало нашего сайта всего за 1$. Внимание количество ограничено!!!

2 сезон

iTunes

1 сезон

1

2 сезон

2 сезон

iTunes

1 сезон

RePack

30

Ultimate

ВАЖНО

ИГРА 18+

pack

RePack

MK11
pack

Забери бонус

RePack

jed

!!Акция!!

Alien_Rage

RePack

fifa19

RePack

Assassins Creed: Odyssey

RePack

NEED FOR SPEED™ PAYBACK

4 сезон

9 сезон

Бесстыжие 9 сезон

Все сериалы

все сериалы на PB.wtf

RePack

FAR CRY 5
  

Джессика Джонс / Jessica Jones / Сезон: 1 / Серии 13 из 13 (С.Дж. Кларксон, Дэвид Петрарка, Стивен Серджик) [2015, Фантастика, боевик, драма, криминал, экранизация комиксов, WEBRip 720p] [MVO] (Jaskier) pb.wtf

Джессика Джонс через торрент pb.wtf

Размер: 16.65 GB | Добавлен: 3 года 2 мес. назад | Торрент скачан:140 раз
Скачать  

02-09-2017 07:52 Джессика Джонс Скачать торрент  

Джессика Джонс | Jessica Jones
Год выпуска: 2015
Страна: США
Жанр: Фантастика, боевик, драма, криминал, экранизация комиксов
Продолжительность: ~ 00:53:00
Перевод: Профессиональный (многоголосый закадровый) Студия Jaskier
Субтитры: Нет

Режиссёр: С.Дж. Кларксон, Дэвид Петрарка, Стивен Серджик

В ролях: Кристен Риттер, Дэвид Теннант, Майк Колтер, Рэйчел Тейлор, Кэрри-Энн Мосс, Эйка Дарвилл, Эрин Мориарти, Уил Трэвэл, Сьюзи Абромейт, Фил Каппадора

Описание: Не так давно Джессика Джонс была супергероем, но ее недолгое пребывание в этой роли закончилось трагедией. Сейчас она восстанавливает свою личную жизнь и карьеру вспыльчивого, язвительного и задиристого частного детектива в Адской Кухне. Джессика пытается преодолеть ненависть к себе и справиться с посттравматическим стрессом, а также борется с внутренними и внешними демонами. А свои экстраординарные способности она использует для защиты тех, кто в ней нуждается, особенно если они могут заплатить за это.

rating

Качество: WEBRip 720
Формат: MKV
Видео кодек: h.264
Аудио кодек: AC3
Видео: AVC, 1280x720 (16:9), 23.976 fps, ~2800kbps ~0.123 bit/pixel
Аудио 1: Dolby AC3 48000Hz stereo 192Kbps Русский
Аудио 2: Dolby AC3 48000Hz 6ch 640Kbps Оригинал (Английский)
General
Unique ID                   : 172643005018790679450408826155446215424 (0x81E1D55381D6B493862E18DF086AA300)
Complete name               : Z:\HD\Jessica Jones. Season 1 (WEBRip l 720p l Jaskier)\marvels.jessica.jones.s01e01.720p.webrip.x264-jaskier.mkv
Format                      : Matroska
Format version              : Version 1
File size                   : 1.36 GiB
Duration                    : 51mn 49s
Overall bit rate            : 3 748 Kbps
Movie name                  : marvels.jessica.jones.s01e01.720p.skgtv
Encoded date                : UTC 2015-11-22 19:22:58
Writing application         : mkvmerge v2.3.0 ('Freak U') built on Sep  8 2008 18:32:16
Writing library             : libebml v0.7.7 + libmatroska v0.8.1
DURATION                    : 00:51:49.984000000
NUMBER_OF_FRAMES            : 97187
NUMBER_OF_BYTES             : 248798720
_STATISTICS_WRITING_APP     : mkvmerge v7.8.0 ('River Man') 32bit built on Mar 27 2015 16:18:02
_STATISTICS_WRITING_DATE_UT : 2015-11-20 14:39:45
_STATISTICS_TAGS            : BPS DURATION NUMBER_OF_FRAMES NUMBER_OF_BYTES

Video
ID                          : 1
Format                      : AVC
Format/Info                 : Advanced Video Codec
Format profile              : High@L4.1
Format settings, CABAC      : Yes
Format settings, ReFrames   : 5 frames
Codec ID                    : V_MPEG4/ISO/AVC
Duration                    : 51mn 50s
Bit rate                    : 2 842 Kbps
Width                       : 1 280 pixels
Height                      : 720 pixels
Display aspect ratio        : 16:9
Frame rate mode             : Constant
Frame rate                  : 25.000 fps
Color space                 : YUV
Chroma subsampling          : 4:2:0
Bit depth                   : 8 bits
Scan type                   : Progressive
Bits/(Pixel*Frame)          : 0.123
Stream size                 : 1.03 GiB (76%)
Writing library             : x264 core 148 r2638 7599210
Encoding settings           : cabac=1 / ref=5 / deblock=1:0:0 / analyse=0x3:0x113 / me=umh / subme=8 / psy=1 / psy_rd=1.00:0.00 / mixed_ref=1 / me_range=16 / chroma_me=1 / trellis=1 / 8x8dct=1 / cqm=0 / deadzone=21,11 / fast_pskip=1 / chroma_qp_offset=-2 / threads=12 / lookahead_threads=2 / sliced_threads=0 / nr=0 / decimate=1 / interlaced=0 / bluray_compat=0 / constrained_intra=0 / bframes=3 / b_pyramid=2 / b_adapt=2 / b_bias=0 / direct=3 / weightb=1 / open_gop=0 / weightp=2 / keyint=250 / keyint_min=25 / scenecut=40 / intra_refresh=0 / rc_lookahead=50 / rc=crf / mbtree=1 / crf=18.0 / qcomp=0.60 / qpmin=0 / qpmax=69 / qpstep=4 / ip_ratio=1.40 / aq=1:1.00
Default                     : Yes
Forced                      : No
Color range                 : Limited
Matrix coefficients         : BT.709
DURATION                    : 00:51:48.800000000
NUMBER_OF_FRAMES            : 77720
NUMBER_OF_BYTES             : 1132199158
_STATISTICS_WRITING_APP     : mkvmerge v7.8.0 ('River Man') 32bit built on Mar 27 2015 16:18:02
_STATISTICS_WRITING_DATE_UT : 2015-11-20 14:39:45
_STATISTICS_TAGS            : BPS DURATION NUMBER_OF_FRAMES NUMBER_OF_BYTES

Audio #1
ID                          : 2
Format                      : AC-3
Format/Info                 : Audio Coding 3
Mode extension              : CM (complete main)
Format settings, Endianness : Big
Codec ID                    : A_AC3
Duration                    : 51mn 49s
Bit rate mode               : Constant
Bit rate                    : 192 Kbps
Channel(s)                  : 2 channels
Channel positions           : Front: L R
Sampling rate               : 48.0 KHz
Compression mode            : Lossy
Stream size                 : 71.2 MiB (5%)
Language                    : Russian
Default                     : Yes
Forced                      : No

Audio #2
ID                          : 3
Format                      : AC-3
Format/Info                 : Audio Coding 3
Mode extension              : CM (complete main)
Format settings, Endianness : Big
Codec ID                    : A_AC3
Duration                    : 51mn 49s
Bit rate mode               : Constant
Bit rate                    : 640 Kbps
Channel(s)                  : 6 channels
Channel positions           : Front: L C R, Side: L R, LFE
Sampling rate               : 48.0 KHz
Compression mode            : Lossy
Stream size                 : 237 MiB (17%)
Language                    : English
Default                     : No
Forced                      : No
скриншот  скриншот  скриншот  
pb.wtf



Скачать Джессика Джонс через торрент http://s017.radikal.ru/i438/1511/58/4cff9a29ac38.png Скачать фильм Джессика Джонс через торрент бесплантно в хорошем качестве Описание: Не так давно Джессика Джонс была супергероем, но ее недолгое пребывание в этой роли закончилось трагедией. Сейчас она ... 9.8 10 4
Info! Золотая раздача, скачанное не засчитывается.
Торрент: Зарегистрирован [2017-09-02 07:52] · скачан: 140 раз
Статус: √ проверено
Размер: 16.65 GB
Как cкачать? Как скачать Джессика Джонс через торрент | qTorrent

% Раздел Тема Автор DL S | L
Зарубежные сериалы [ 33.79 GB ] Джессика Джонс / Jessica Jones / Сезон: 1 / Серии: 1-9 из 13 [2015 BDRip 1080p] MVO [TVShows] bober100 Скачать
1 | 0
Зарубежные сериалы [ 41.21 GB ] Джессика Джонс / Marvel’s Jessica Jones / Сезон: 3 / Серии: 1-13 из 13 [2019 WEBRip 720p] MVO [NewStudio] bober100 Скачать
1 | 0
Зарубежные сериалы [ 86.24 GB ] Джессика Джонс / Marvel’s Jessica Jones / Сезон: 3 / Серии: 1-13 из 13 [2019 WEBRip 1080p] MVO [NewStudio] bober100 Скачать
1 | 0
Зарубежные сериалы [ 78.51 GB ] Джессика Джонс / Jessica Jones / Сезон: 3 / Серии: 1-13 из 13 [2019 UHD WEB-DL 2160p] MVO [LostFilm] sheker187 Скачать
1 | 0
Зарубежные сериалы [ 77.62 GB ] Джессика Джонс / Jessica Jones / Сезон: 3 / Серии: 1-13 из 13 [2019 UHD WEB-DL 2160p] MVO [TVShows] sheker187 Скачать
1 | 0
Зарубежные сериалы [ 9.24 GB ] Джессика Джонс / Jessica Jones / Сезон: 3 / Серии: 1-13 из 13 [2019 WEBRip] MVO [TVShows] bober100 Скачать
1 | 0
Зарубежные сериалы [ 26.52 GB ] Джессика Джонс / Jessica Jones / Сезон: 3 / Серии: 1-13 из 13 [2019 WEB-DL 1080p] [MVO] killermax2013 Скачать
1 | 0

28-11-2019 20:33  

Отключить всю рекламу на сайте

    Дорогой пользователь! Огромная просьба, поблагодарите релизера, оцените раздачу и оставьте свои комментарий, если Вы скачали Джессика Джонс через торрент бесплатно! Внесите свою лепту в развитие PiratBit!
    Комментировать посты могут только пользователи прошедшие не сложную регистрацию
    Показать сообщения:    

    Джессика Джонс через торрент
    Скачать бесплатно Джессика Джонс
    Джессика Джонс скачать торрент
    Джессика Джонс смотреть онлайн
    Cкачать фильм Джессика Джонс бесплатно
    Джессика Джонс скачать торрент в хорошем качестве
    Джессика Джонс смотреть онлайн бесплатно в хорошем качестве


    Вы не можете начинать темы
    Вы не можете отвечать на сообщения
    Вы не можете редактировать свои сообщения
    Вы не можете удалять свои сообщения
    Вы не можете голосовать в опросах
    Вы не можете прикреплять файлы к сообщениям
    Вы можете скачивать файлы