Ссылка на приватное зеркало нашего сайта всего за 1$. Внимание количество ограничено!!!

2 сезон

iTunes

1 сезон

1

iTunes

iTunes

iTunes

1 сезон

RePack

30

ИГРА 18+

pack

ВАЖНО

!!Акция!!

Alien_RageХит недели

RePack

MK11
pack

Забери бонус

RePack

jed

!!Акция!!

Alien_Rage

RePack

fifa19

RePack

Assassins Creed: Odyssey

RePack

NEED FOR SPEED™ PAYBACK

4 сезон

9 сезон

Бесстыжие 9 сезон

Все сериалы

все сериалы на PB.wtf

RePack

FAR CRY 5
  

Дыра / Le Trou (Жак Беккер) [1960, триллер, драма, криминал, BDRip 1080p by msltel] DVO, AVO pb.wtf

Дыра через торрент pb.wtf

Размер: 16.7 GB | Добавлен: 3 года 1 мес. назад | Торрент скачан:17 раз
Скачать  

02-09-2017 07:59 Дыра Скачать торрент  

Название: Дыра
Оригинальное название: Le Trou
Год выпуска: 1960
Страна: Франция, Италия
Жанр: триллер, драма, криминал
Продолжительность: 02:11:51
Перевод: профессиональный двухголосый, авторский

Режиссер: Жак Беккер
В ролях: Мишель Константен, Филипп Леруа, Раймон Мёнье, Марк Мишель, Жан-Поль Коклен, Андре Бервиль, Жан Беккер, Филипп Дюма

О фильме: Молодой Гаспар, ожидающий решения суда, попадает в камеру к четырём приятелям, задумавшим побег. Пока длится следствие по их делам, они готовят путь на волю. Жео, Ролан, Монсиньор и Маню посвящают новичка в свою тайну, и вот уже пять человек ломают стену в тюремном подземелье, день за днём увеличивая дыру и приближаясь к долгожданной свободе... Фильм основан на реальной истории, описанной в одноимённом романе Жозе Джованни.



Качество: BDRip 1080p
Формат: MKV
Видео: MPEG-4 AVC, 17.6 Mбит/с, 1800x1080
Аудио 1: русский, AC3, 192 kbps, 2 ch [профессиональный двухголосый]
Аудио 2: русский, AC3, 192 kbps, 2 ch [авторский, Роман Янкелевич]
Аудио 3: французский, AC3, 192 kbps, 2 ch, 48 kHz [оригинал]
Субтитры: английские
Имеются неименованные главы/чаптеры.
Общее
Уникальный идентификатор : 232569297229923690092970765605316595750 (0xAEF737A56E3B70BC9BE3F9CC2F401026)
Полное имя : D:\Video\Дыра.1960.BDRip.1080p by msltel.mkv
Формат : Matroska
Версия формата : Version 4 / Version 2
Размер файла : 16,7 Гбайт
Продолжительность : 2 ч. 11 м.
Общий поток : 18,1 Мбит/сек
Название фильма : Rip by msltel
Дата кодирования : UTC 2017-09-01 02:04:51
Программа кодирования : mkvmerge v8.2.0 ('World of Adventure') 64bit
Библиотека кодирования : libebml v1.3.1 + libmatroska v1.4.2

Видео
Идентификатор : 1
Формат : AVC
Формат/Информация : Advanced Video Codec
Профиль формата : High@L4.1
Параметр CABAC формата : Да
Параметр RefFrames формата : 4 кадра
Идентификатор кодека : V_MPEG4/ISO/AVC
Продолжительность : 2 ч. 11 м.
Битрейт : 17,6 Мбит/сек
Ширина : 1800 пикселей
Высота : 1080 пикселей
Соотношение сторон : 5:3
Режим частоты кадров : Постоянный
Частота кадров : 24,000 кадра/сек
Цветовое пространство : YUV
Субдискретизация насыщенности : 4:2:0
Битовая глубина : 8 бит
Тип развёртки : Прогрессивная
Бит/(Пиксели*Кадры) : 0.378
Размер потока : 16,2 Гбайт (97%)
Библиотека кодирования : x264 core 146 r2538 121396c
Настройки программы : cabac=1 / ref=4 / deblock=1:-3:-2 / analyse=0x3:0x113 / me=umh / subme=11 / psy=1 / psy_rd=1.00:0.15 / mixed_ref=1 / me_range=32 / chroma_me=1 / trellis=2 / 8x8dct=1 / cqm=0 / deadzone=21,11 / fast_pskip=0 / chroma_qp_offset=-3 / threads=6 / lookahead_threads=1 / sliced_threads=0 / nr=0 / decimate=1 / interlaced=0 / bluray_compat=0 / constrained_intra=0 / bframes=11 / b_pyramid=2 / b_adapt=2 / b_bias=0 / direct=1 / weightb=1 / open_gop=0 / weightp=2 / keyint=230 / keyint_min=23 / scenecut=40 / intra_refresh=0 / rc_lookahead=40 / rc=crf / mbtree=0 / crf=20.8 / qcomp=0.60 / qpmin=0 / qpmax=69 / qpstep=4 / vbv_maxrate=62500 / vbv_bufsize=78125 / crf_max=0.0 / nal_hrd=none / filler=0 / ip_ratio=1.40 / pb_ratio=1.30 / aq=1:1.00
Язык : French
Default : Да
Forced : Нет

Аудио #1
Идентификатор : 2
Формат : AC-3
Формат/Информация : Audio Coding 3
Параметр Endianness формата : Big
Идентификатор кодека : A_AC3
Продолжительность : 2 ч. 11 м.
Вид битрейта : Постоянный
Битрейт : 192 Кбит/сек
Каналы : 2 канала
Расположение каналов : Front: L R
Частота : 48,0 КГц
Частота кадров : 31,250 кадров/сек (1536 SPF)
Битовая глубина : 16 бит
Метод сжатия : С потерями
Размер потока : 181 Мбайт (1%)
Заголовок : DVO
Язык : Russian
ServiceKind/String : Complete Main
Default : Нет
Forced : Нет

Аудио #2
Идентификатор : 3
Формат : AC-3
Формат/Информация : Audio Coding 3
Параметр Endianness формата : Big
Идентификатор кодека : A_AC3
Продолжительность : 2 ч. 11 м.
Вид битрейта : Постоянный
Битрейт : 192 Кбит/сек
Каналы : 2 канала
Расположение каналов : Front: L R
Частота : 48,0 КГц
Частота кадров : 31,250 кадров/сек (1536 SPF)
Битовая глубина : 16 бит
Метод сжатия : С потерями
Размер потока : 181 Мбайт (1%)
Заголовок : AVO (Роман Янкелевич)
Язык : Russian
ServiceKind/String : Complete Main
Default : Нет
Forced : Нет

Аудио #3
Идентификатор : 4
Формат : AC-3
Формат/Информация : Audio Coding 3
Параметр Endianness формата : Big
Идентификатор кодека : A_AC3
Продолжительность : 2 ч. 11 м.
Вид битрейта : Постоянный
Битрейт : 192 Кбит/сек
Каналы : 2 канала
Расположение каналов : Front: L R
Частота : 48,0 КГц
Частота кадров : 31,250 кадров/сек (1536 SPF)
Битовая глубина : 16 бит
Метод сжатия : С потерями
Размер потока : 180 Мбайт (1%)
Заголовок : original
Язык : French
ServiceKind/String : Complete Main
Default : Нет
Forced : Нет

Текст
Идентификатор : 5
Формат : UTF-8
Идентификатор кодека : S_TEXT/UTF8
Идентификатор кодека/Информация : UTF-8 Plain Text
Продолжительность : 2 ч. 8 м.
Битрейт : 33 бит/сек
ElementCount : 961
Размер потока : 31,2 Кбайт (0%)
Заголовок : английсике
Язык : English
Default : Нет
Forced : Нет

Меню
00:00:00.000 : en:Chapter 1
00:09:27.666 : en:Chapter 2
00:21:11.583 : en:Chapter 3
00:32:13.083 : en:Chapter 4
00:43:01.291 : en:Chapter 5
00:53:07.541 : en:Chapter 6
01:04:15.333 : en:Chapter 7
01:14:55.125 : en:Chapter 8
01:26:20.625 : en:Chapter 9
01:36:53.625 : en:Chapter 10
01:47:46.000 : en:Chapter 11
01:58:32.375 : en:Chapter 12
pb.wtf



Скачать Дыра через торрент http://s019.radikal.ru/i605/1708/8b/370b6ccd3b5e.jpg Скачать фильм Дыра через торрент бесплантно в хорошем качестве О фильме: Молодой Гаспар, ожидающий решения суда, попадает в камеру к четырём приятелям, задумавшим побег. Пока длится следствие по их ... 10 10 2
Info! Золотая раздача, скачанное не засчитывается.
Торрент: Зарегистрирован [2017-09-02 07:59] · скачан: 17 раз
Статус: √ проверено
Размер: 16.7 GB
Как cкачать? Как скачать Дыра через торрент | qTorrent

% Раздел Тема Автор DL S | L
Фильмы [HD 720p, 1080p] (Хороший звук DUB, MVO) [ 6.11 GB ] Дыра / Le Trou [1960 BDRip 720p by msltel] DVO AVO msltel Скачать
1 | 0

28-11-2019 20:33  

Отключить всю рекламу на сайте

    Дорогой пользователь! Огромная просьба, поблагодарите релизера, оцените раздачу и оставьте свои комментарий, если Вы скачали Дыра через торрент бесплатно! Внесите свою лепту в развитие PiratBit!
    Комментировать посты могут только пользователи прошедшие не сложную регистрацию
    Показать сообщения:    

    Дыра через торрент
    Скачать бесплатно Дыра
    Дыра скачать торрент
    Дыра смотреть онлайн
    Cкачать фильм Дыра бесплатно
    Дыра скачать торрент в хорошем качестве
    Дыра смотреть онлайн бесплатно в хорошем качестве


    Вы не можете начинать темы
    Вы не можете отвечать на сообщения
    Вы не можете редактировать свои сообщения
    Вы не можете удалять свои сообщения
    Вы не можете голосовать в опросах
    Вы не можете прикреплять файлы к сообщениям
    Вы можете скачивать файлы