Ссылка на приватное зеркало нашего сайта всего за 1$. Внимание количество ограничено!!!

2 сезон

iTunes

1 сезон

1

2 сезон

2 сезон

iTunes

1 сезон

RePack

30

Ultimate

ВАЖНО

ИГРА 18+

pack

RePack

MK11
pack

Забери бонус

RePack

jed

!!Акция!!

Alien_Rage

RePack

fifa19

RePack

Assassins Creed: Odyssey

RePack

NEED FOR SPEED™ PAYBACK

4 сезон

9 сезон

Бесстыжие 9 сезон

Все сериалы

все сериалы на PB.wtf

RePack

FAR CRY 5
  

Охота на Унабомбера / Manhunt: Unabomber / Сезон 1 / Серии 1-8 из 8 (Грег Яйтанс) [2017, Драма, криминал, WEBRip] [MVO] (Jaskier) pb.wtf

Охота на Унабомбера через торрент pb.wtf

Размер: 3.91 GB | Добавлен: 3 года 2 мес. назад | Торрент скачан:112 раз
Скачать  

02-09-2017 11:30 Охота на Унабомбера Скачать торрент  

Охота на Унабомбера | Manhunt: Unabomber Год выпуска: 2017
Страна: США
Жанр: Драма, криминал
Продолжительность: ~ 00:44:00
Перевод: Профессиональный (многоголосый закадровый) | Jaskier

Режиссёр: Грег Яйтанс

В ролях: Пол Беттани, Джейн Линч, Сэм Уортингтон, Лорен Франдсен, Роуэн Бусед, Дизель, Грифф Ферст, Бонни Джонсон, Джон Мерикал, Майк Пневски и др.

Описание: История противостояния офицера ФБР Джима Фицджеральда и опасного преступника Теодора Качински по прозвищу Унабомбер, рассылавшего по почте самодельные бомбы.



Качество: WEBRip
Формат: AVI
Видео: XviD, ~ 1400 kbps, 720x400 (16:9), 23.976 fps
Аудио 1: MP3, 48,0 КГц, 2 ch, 128 kbps - Rus
Аудио 2: MP3, 48,0 КГц, 2 ch, 128 kbps - Eng
Субтитры: отсутствуют
Переведено и озвучено: студией Jaskier
Общее
Полное имя                               : E:\JASKiER\Manhunt Unabomber. Season 1 (WEBRip l 400p l Jaskier)\Manhunt.Unabomber.s01e01.WEBRip.Rus.Eng.Jaskier.avi
Формат                                   : AVI
Формат/Информация                        : Audio Video Interleave
Размер файла                             : 501 Мбайт
Продолжительность                        : 42 м. 41 с.
Общий поток                              : 1640 Кбит/сек
Программа кодирования                    : VirtualDubMod 1.5.10.3 | www.virtualdub-fr.org || (build 2550/release)
Библиотека кодирования                   : VirtualDubMod build 2550/release

Видео
Идентификатор                            : 0
Формат                                   : MPEG-4 Visual
Профиль формата                          : Advanced Simple@L5
Параметр BVOP формата                    : 1
Параметр QPel формата                    : Нет
Параметр GMC формата                     : Без точки перехода
Параметр матрицы формата                 : Default (MPEG)
Идентификатор кодека                     : XVID
Идентификатор кодека/Подсказка           : XviD
Продолжительность                        : 42 м. 41 с.
Битрейт                                  : 1370 Кбит/сек
Ширина                                   : 720 пикселей
Высота                                   : 400 пикселей
Соотношение сторон                       : 16:9
Частота кадров                           : 23,976 (24000/1001) кадра/сек
Цветовое пространство                    : YUV
Субдискретизация насыщенности            : 4:2:0
Битовая глубина                          : 8 бит
Тип развёртки                            : Прогрессивная
Метод сжатия                             : С потерями
Бит/(Пиксели*Кадры)                      : 0.198
Размер потока                            : 418 Мбайт (84%)
Библиотека кодирования                   : XviD 73

Аудио #1
Идентификатор                            : 1
Формат                                   : MPEG Audio
Версия формата                           : Version 1
Профиль формата                          : Layer 3
Режим                                    : Joint stereo
Расширение режима                        : MS Stereo
Идентификатор кодека                     : 55
Идентификатор кодека/Подсказка           : MP3
Продолжительность                        : 42 м. 41 с.
Вид битрейта                             : Постоянный
Битрейт                                  : 128 Кбит/сек
Каналы                                   : 2 канала
Частота                                  : 48,0 КГц
Метод сжатия                             : С потерями
Размер потока                            : 39,1 Мбайт (8%)
Выравнивание                             : Соединение по промежуткам
Продолжительность промежутка             : 42  мс. (1,00 видеокадр)
Время предзагрузки промежутка            : 504  мс.

Аудио #2
Идентификатор                            : 2
Формат                                   : MPEG Audio
Версия формата                           : Version 1
Профиль формата                          : Layer 3
Режим                                    : Joint stereo
Идентификатор кодека                     : 55
Идентификатор кодека/Подсказка           : MP3
Продолжительность                        : 42 м. 41 с.
Вид битрейта                             : Постоянный
Битрейт                                  : 128 Кбит/сек
Каналы                                   : 2 канала
Частота                                  : 48,0 КГц
Метод сжатия                             : С потерями
Размер потока                            : 39,1 Мбайт (8%)
Выравнивание                             : Соединение по промежуткам
Продолжительность промежутка             : 42  мс. (1,00 видеокадр)
Время предзагрузки промежутка            : 504  мс.
скриншот  скриншот  скриншот  
Когда раздача ведётся путём добавления новых серий, при каждом добавлении создётся новый торрент. Чтобы начать докачку новой серии, пользователям необходимо сделать следующее:
(1) остановить скачивание,
(2) удалить старый торрент у себя из клиента (старые серии удалять не надо),
(3) скачать новый торрент и запустить его у себя в клиенте вместо старого, при этом указать клиенту путь в старую папку, куда и должно происходить скачивание новых серий.
Ваш клиент при этом должен произвести хеширование (проверку) старой папки (если не производит сам - помогите ему сделать это), и будет докачивать только те серии, которых у вас ещё нет. Старые серии при этом не удаляются, а продолжают раздаваться!
Eсли вы уже удалили старые серии, то предотвратить повторную закачку старых серий можно, отжав галочку в соответсвующих местах при запуске нового торрента. По возможности, желательно не удалять старые серии как можно дольше, чтобы релизёр не столько продолжал раздавать старые серии, а смог сконцентрироваться на новых.
pb.wtf



Скачать Охота на Унабомбера через торрент http://i94.fastpic.ru/big/2017/0807/71/b696f5167c465bef5cceb5d92172d271.png Скачать фильм Охота на Унабомбера через торрент бесплантно в хорошем качестве Описание: История противостояния офицера ФБР Джима Фицджеральда и опасного преступника Теодора Качински по прозвищу Унабомбер, рассылавшего ... 10 10 3
Торрент: Зарегистрирован [2017-09-23 14:17] · скачан: 112 раз
Статус: √ проверено
Размер: 3.91 GB
Как cкачать? Как скачать Охота на Унабомбера через торрент | qTorrent

% Раздел Тема Автор DL S | L
Зарубежные сериалы [ 19.91 GB ] Охота на Унабомбера / Manhunt: Unabomber / Сезон 1 / Серии 1-8 из 8 [2017 WEBRip 1080p] [MVO] killermax2013 Скачать
1 | 0
Зарубежные сериалы [ 11.65 GB ] Охота на Унабомбера / Manhunt: Unabomber / Сезон 1 / Серии 1-8 из 8 [2017 WEBRip 720p] [MVO] killermax2013 Скачать
1 | 0
Зарубежные сериалы [ 11.13 GB ] Охота на Унабомбера / Manhunt: Unabomber / Сезон 1 / Серии 1-8 из 8 [2017 WEBRip 720p] MVO [BaibaKo] bober100 Скачать
1 | 0
Зарубежные сериалы [ 3.91 GB ] Охота на Унабомбера / Manhunt: Unabomber / Сезон 1 / Серии 1-8 из 8 [2017 WEBRip] MVO [BaibaKo] bober100 Скачать
1 | 0
Зарубежные сериалы [ 5.15 GB ] Охота на Унабомбера / Manhunt: Unabomber / Сезон: 1 / Серии 1-8 из 8 [2017 WEBRip-AVC] MVO [BaibaKo] GEKADOL Скачать
1 | 0


Последний раз редактировалось: killermax2013 (2017-09-23 14:17), всего редактировалось 1 раз

28-11-2019 20:33  

Отключить всю рекламу на сайте

04-09-2017 15:22 Охота на Унабомбера Скачать торрент  

+4-5pb.wtf



23-09-2017 14:18 Охота на Унабомбера Скачать торрент  

+6-8pb.wtf



    Дорогой пользователь! Огромная просьба, поблагодарите релизера, оцените раздачу и оставьте свои комментарий, если Вы скачали Охота на Унабомбера через торрент бесплатно! Внесите свою лепту в развитие PiratBit!
    Комментировать посты могут только пользователи прошедшие не сложную регистрацию
    Показать сообщения:    

    Охота на Унабомбера через торрент
    Скачать бесплатно Охота на Унабомбера
    Охота на Унабомбера скачать торрент
    Охота на Унабомбера смотреть онлайн
    Cкачать фильм Охота на Унабомбера бесплатно
    Охота на Унабомбера скачать торрент в хорошем качестве
    Охота на Унабомбера смотреть онлайн бесплатно в хорошем качестве


    Вы не можете начинать темы
    Вы не можете отвечать на сообщения
    Вы не можете редактировать свои сообщения
    Вы не можете удалять свои сообщения
    Вы не можете голосовать в опросах
    Вы не можете прикреплять файлы к сообщениям
    Вы можете скачивать файлы