Доктор Стрэндж

Лицензия

Добыча

Дубляж

Уэнсдэй

1 сезон

Тор

Дубляж

В эфире

Дубляж

Там, где раки поют

MVO

Властелин колец

1 сезон

Deluxe

pack

Рекомендуем

30

Пиратка

ВАЖНО

ВАЖНО

Ghostwire

Пиратка

jed

RePack

nioh2

RePack

RDR2

RePack

NEED FOR SPEED™ PAYBACK

RePack

скачать торрент

Кинопоиск HD

Острые козырьки 6 сезон

6 сезон

FAR CRY 6

RePack

скачать торрент

Лицензия

скачать торрент

MVO

1

1 сезон

скачать торрент

1 сезон

скачать торрент

Лицензия

  

Бриллиантовый полицейский / Blue Streak (Лес Мэйфилд) [1999, боевик, триллер, комедия, криминал, BDRip 720p ] Дубляж, 2 x MVO, 2 x AVO

Бриллиантовый полицейский через торрент pb.wtf

Размер: 5.87 GB | Добавлен: 5 лет 3 мес. назад | Торрент скачан:187 раз
Смотреть онлайн | Скачать   

02-09-2017 11:56 Бриллиантовый полицейский Скачать торрент  

Название: Бриллиантовый полицейский
Оригинальное название: Blue Streak
Год выпуска: 1999
Страна: США, Германия
Жанр: боевик, триллер, комедия, криминал
Продолжительность: 01:34:06
Перевод: дублированный, профессиональный многоголосый, авторский

Режиссер: Лес Мэйфилд
В ролях: Мартин Лоуренс, Люк Уилсон, Питер Грин, Дэйв Шапелл, Николь Ари Паркер, Грэм Беккел, Роберт Миранда, Олек Крупа, Саверио Гуэрра, Тамала Джонс, Хулио Оскар Мечосо, Стив Рэнкин, Кармен Ардженциано, Джон Хоукс, Роберт ЛаСардо

Описание: Вор должен сидеть в тюрьме, а не работать в полиции. Создатели этого комедийного боевика с этим не согласны. Непревзойдённый эксперт по сейфам и хранящимся в них драгоценностям Майлс Логан выходит из тюрьмы и сразу направляется … в полицию. Незадолго перед арестом он спрятал бесценный бриллиант в строящемся здании, которое вскоре превратилось в полицейский участок. Чтобы проникнуть на вражескую территорию и вернуть украденное, Майлс становится служителем закона, и, как назло, ему приходится участвовать в настоящих расследованиях. За считанные дни неисправимый рецидивист становится руководителем целого подразделения! Ведь никто лучше вора не знает всех тонкостей криминального мира. Однако всё это время преступное сообщество внимательно следило за карьерой "бриллиантового" полицейского. И приняло меры...



Качество: BDRip 720p
Формат: MKV
Видео: MPEG-4 AVC, 6178 Кбит/c, 1280x692
Аудио 1: русский, AC3, 640 kbps, 6 ch, 48 kHz [дублированный]
Аудио 2: русский, AC3, 448 kbps, 6 ch, 48 kHz [профессиональный многоголосый, R5]
Аудио 3: русский, AC3, 192 kbps, 2 ch, 48 kHz [профессиональный многоголосый, OPT]
Аудио 4: русский, AC3, 384 kbps, 6 ch, 48 kHz [авторский, Максим Латышев]
Аудио 5: русский, AC3, 448 kbps, 6 ch, 48 kHz [авторский, Павел Санаев]
Аудио 6: английский, AC3, 640 kbps, 6 ch, 48 kHz [оригинал]
Субтитры 1: русские
Субтитры 2: английские
Имеются неименованные главы/чаптеры.
Общее
Уникальный идентификатор : 226500192764173835286869003734782905883 (0xAA6659B18C0028E2B50719173AD10E1B)
Полное имя : D:\Video\Бриллиантовый полицейский.1999.BDRip.720p by msltel.mkv
Формат : Matroska
Версия формата : Version 4 / Version 2
Размер файла : 5,87 Гбайт
Продолжительность : 1 ч. 34 м.
Общий поток : 8933 Кбит/сек
Название фильма : Rip by msltel
Дата кодирования : UTC 2017-09-02 04:08:18
Программа кодирования : mkvmerge v8.2.0 ('World of Adventure') 64bit
Библиотека кодирования : libebml v1.3.1 + libmatroska v1.4.2

Видео
Идентификатор : 1
Формат : AVC
Формат/Информация : Advanced Video Codec
Профиль формата : [email protected]
Параметр CABAC формата : Да
Параметр RefFrames формата : 9 кадров
Идентификатор кодека : V_MPEG4/ISO/AVC
Продолжительность : 1 ч. 34 м.
Битрейт : 6178 Кбит/сек
Ширина : 1280 пикселей
Высота : 692 пикселя
Соотношение сторон : 1,85:1
Режим частоты кадров : Постоянный
Частота кадров : 23,976 (24000/1001) кадра/сек
Цветовое пространство : YUV
Субдискретизация насыщенности : 4:2:0
Битовая глубина : 8 бит
Тип развёртки : Прогрессивная
Бит/(Пиксели*Кадры) : 0.291
Размер потока : 4,06 Гбайт (69%)
Библиотека кодирования : x264 core 146 r2538 121396c
Настройки программы : cabac=1 / ref=9 / deblock=1:-3:-2 / analyse=0x3:0x113 / me=umh / subme=11 / psy=1 / psy_rd=1.00:0.15 / mixed_ref=1 / me_range=32 / chroma_me=1 / trellis=2 / 8x8dct=1 / cqm=0 / deadzone=21,11 / fast_pskip=0 / chroma_qp_offset=-3 / threads=6 / lookahead_threads=1 / sliced_threads=0 / nr=0 / decimate=1 / interlaced=0 / bluray_compat=0 / constrained_intra=0 / bframes=8 / b_pyramid=2 / b_adapt=2 / b_bias=0 / direct=1 / weightb=1 / open_gop=0 / weightp=2 / keyint=230 / keyint_min=23 / scenecut=40 / intra_refresh=0 / rc_lookahead=40 / rc=crf / mbtree=0 / crf=20.6 / qcomp=0.60 / qpmin=0 / qpmax=69 / qpstep=4 / vbv_maxrate=62500 / vbv_bufsize=78125 / crf_max=0.0 / nal_hrd=none / filler=0 / ip_ratio=1.40 / pb_ratio=1.30 / aq=1:1.00
Язык : English
Default : Да
Forced : Нет

Аудио #1
Идентификатор : 2
Формат : AC-3
Формат/Информация : Audio Coding 3
Параметр Endianness формата : Big
Идентификатор кодека : A_AC3
Продолжительность : 1 ч. 34 м.
Вид битрейта : Постоянный
Битрейт : 640 Кбит/сек
Каналы : 6 каналов
Расположение каналов : Front: L C R, Side: L R, LFE
Частота : 48,0 КГц
Частота кадров : 31,250 кадров/сек (1536 SPF)
Битовая глубина : 16 бит
Метод сжатия : С потерями
Размер потока : 431 Мбайт (7%)
Заголовок : Дубляж
Язык : Russian
ServiceKind/String : Complete Main
Default : Да
Forced : Нет

Аудио #2
Идентификатор : 3
Формат : AC-3
Формат/Информация : Audio Coding 3
Параметр Endianness формата : Big
Идентификатор кодека : A_AC3
Продолжительность : 1 ч. 34 м.
Вид битрейта : Постоянный
Битрейт : 448 Кбит/сек
Каналы : 6 каналов
Расположение каналов : Front: L C R, Side: L R, LFE
Частота : 48,0 КГц
Частота кадров : 31,250 кадров/сек (1536 SPF)
Битовая глубина : 16 бит
Метод сжатия : С потерями
Размер потока : 302 Мбайт (5%)
Заголовок : MVO, R5
Язык : Russian
ServiceKind/String : Complete Main
Default : Нет
Forced : Нет

Аудио #3
Идентификатор : 4
Формат : AC-3
Формат/Информация : Audio Coding 3
Параметр Endianness формата : Big
Идентификатор кодека : A_AC3
Продолжительность : 1 ч. 34 м.
Вид битрейта : Постоянный
Битрейт : 192 Кбит/сек
Каналы : 2 канала
Расположение каналов : Front: L R
Частота : 48,0 КГц
Частота кадров : 31,250 кадров/сек (1536 SPF)
Битовая глубина : 16 бит
Метод сжатия : С потерями
Размер потока : 129 Мбайт (2%)
Заголовок : MVO, OPT
Язык : Russian
ServiceKind/String : Complete Main
Default : Нет
Forced : Нет

Аудио #4
Идентификатор : 5
Формат : AC-3
Формат/Информация : Audio Coding 3
Параметр Endianness формата : Big
Идентификатор кодека : A_AC3
Продолжительность : 1 ч. 34 м.
Вид битрейта : Постоянный
Битрейт : 384 Кбит/сек
Каналы : 6 каналов
Расположение каналов : Front: L C R, Side: L R, LFE
Частота : 48,0 КГц
Частота кадров : 31,250 кадров/сек (1536 SPF)
Битовая глубина : 16 бит
Метод сжатия : С потерями
Размер потока : 258 Мбайт (4%)
Заголовок : AVO, Максим Латышев
Язык : Russian
ServiceKind/String : Complete Main
Default : Нет
Forced : Нет

Аудио #5
Идентификатор : 6
Формат : AC-3
Формат/Информация : Audio Coding 3
Параметр Endianness формата : Big
Идентификатор кодека : A_AC3
Продолжительность : 1 ч. 34 м.
Вид битрейта : Постоянный
Битрейт : 448 Кбит/сек
Каналы : 6 каналов
Расположение каналов : Front: L C R, Side: L R, LFE
Частота : 48,0 КГц
Частота кадров : 31,250 кадров/сек (1536 SPF)
Битовая глубина : 16 бит
Метод сжатия : С потерями
Размер потока : 302 Мбайт (5%)
Заголовок : Павел Санаев
Язык : Russian
ServiceKind/String : Complete Main
Default : Нет
Forced : Нет

Аудио #6
Идентификатор : 7
Формат : AC-3
Формат/Информация : Audio Coding 3
Параметр Endianness формата : Big
Идентификатор кодека : A_AC3
Продолжительность : 1 ч. 34 м.
Вид битрейта : Постоянный
Битрейт : 640 Кбит/сек
Каналы : 6 каналов
Расположение каналов : Front: L C R, Side: L R, LFE
Частота : 48,0 КГц
Частота кадров : 31,250 кадров/сек (1536 SPF)
Битовая глубина : 16 бит
Метод сжатия : С потерями
Размер потока : 431 Мбайт (7%)
Заголовок : original
Язык : English
ServiceKind/String : Complete Main
Default : Нет
Forced : Нет

Текст #1
Идентификатор : 8
Формат : UTF-8
Идентификатор кодека : S_TEXT/UTF8
Идентификатор кодека/Информация : UTF-8 Plain Text
Продолжительность : 1 ч. 29 м.
Битрейт : 79 бит/сек
ElementCount : 1259
Размер потока : 52,0 Кбайт (0%)
Заголовок : русские
Язык : Russian
Default : Нет
Forced : Нет

Текст #2
Идентификатор : 9
Формат : UTF-8
Идентификатор кодека : S_TEXT/UTF8
Идентификатор кодека/Информация : UTF-8 Plain Text
Продолжительность : 1 ч. 27 м.
Битрейт : 60 бит/сек
ElementCount : 1224
Размер потока : 38,8 Кбайт (0%)
Заголовок : английские
Язык : English
Default : Нет
Forced : Нет

Меню
00:00:00.000 : :Chapter 01
00:11:04.329 : :Chapter 02
00:18:03.082 : :Chapter 03
00:22:22.382 : :Chapter 04
00:30:13.895 : :Chapter 05
00:35:49.313 : :Chapter 06
00:38:51.245 : :Chapter 07
00:47:50.492 : :Chapter 08
00:50:29.025 : :Chapter 09
00:56:26.257 : :Chapter 10
01:03:15.124 : :Chapter 11
01:07:44.477 : :Chapter 12
01:11:27.533 : :Chapter 13
01:17:29.144 : :Chapter 14
01:23:10.985 : :Chapter 15
01:27:58.189 : :Chapter 16



Скачать Бриллиантовый полицейский через торрент http://s018.radikal.ru/i504/1709/49/801ac0272c04.jpg Скачать, смотреть онлайн Бриллиантовый полицейский бесплантно в хорошем качестве Описание: Вор должен сидеть в тюрьме, а не работать в полиции. Создатели этого комедийного боевика с этим не согласны. Непревзойдённый ... 10 10 23
Info! Золотая раздача, скачанное не засчитывается.
Торрент: Зарегистрирован [2017-09-02 11:56] · скачан: 187 раз
Статус: √ проверено
Размер: 5.87 GB
Как cкачать? Как скачать Бриллиантовый полицейский через торрент | UTorrent

28-11-2019 20:33  


Отключить вcю реклaмy на сайте, в т.ч. и в плеере онлайн просмотра!

02-09-2017 12:55 Бриллиантовый полицейский Скачать торрент  

Классика,пересмотреть,Респ. Вот слабо кто скачал ,палец в верх ,от благодарить ? Мышь заклинит?



02-09-2017 18:22 Бриллиантовый полицейский Скачать торрент  

rayl116rus писал(а):

Классика,пересмотреть,Респ. Вот слабо кто скачал ,палец в верх ,от благодарить ? Мышь заклинит?

Поддержу,фильм отличный.



03-09-2017 06:42 Бриллиантовый полицейский Скачать торрент  

ого! спасибо



03-09-2017 15:08 Бриллиантовый полицейский Скачать торрент  

блин, вроде хочется посмотреть, а вроде смотрел уже раз 6, без преувеличений)



04-09-2017 21:01 Бриллиантовый полицейский Скачать торрент  

Посмотрел, порадовался..



    Дорогой пользователь! Огромная просьба, поблагодарите релизера, оцените раздачу и оставьте свои комментарий, если Вы скачали Бриллиантовый полицейский через торрент бесплатно!!
    Комментировать посты могут только пользователи прошедшие не сложную регистрацию
    Показать сообщения:    


    Бриллиантовый полицейский через торрент
    Скачать бесплатно Бриллиантовый полицейский
    Бриллиантовый полицейский скачать торрент
    Бриллиантовый полицейский смотреть онлайн
    Cкачать фильм Бриллиантовый полицейский бесплатно
    Бриллиантовый полицейский скачать торрент в хорошем качестве
    Бриллиантовый полицейский смотреть онлайн бесплатно в хорошем качестве
    Вы не можете начинать темы
    Вы не можете отвечать на сообщения
    Вы не можете редактировать свои сообщения
    Вы не можете удалять свои сообщения
    Вы не можете голосовать в опросах
    Вы не можете прикреплять файлы к сообщениям
    Вы можете скачивать файлы
    Бриллиантовый полицейский / Blue Streak [1999, боевик, триллер, комедия, криминал, BDRip 720p ] Дубляж, 2 x MVO, 2 x AVO смотреть онлайн, скачать торрент picoco.icu