Anonymous, доброе утро, присоединяйтесь к нам в Telegram!, здесь всегда актуальный адрес сайта, оперативная поддержка и многое другое!

>

5.6

iTunes

7.4

iTunes

5.7

MVO

1

7.7

1 сезон

6.8

iTunes

7.3

1 сезон

13

6.7

1 сезон

8.3

RePack

30

ULTIMATE

pack

9.9

Лицензия

ВАЖНО

ИГРА 18+

pack

7.3

RePack

MK11

7.7

RePack

jed

7.8

RePack

fifa19

8.5

RePack

RDR2

RePack

NEED FOR SPEED™ PAYBACK

4 сезон

9 сезон

Бесстыжие 9 сезон

Все сериалы

все сериалы на PB.wtf

RePack

FAR CRY 5

Anonymous, доброе утро, мы катастрофически не успеваем собрать деньги на оплату серверов, помогите нам пожалуйста 5,10,15р., для нас важна любая помощь . В качестве благодарности мы отключим Вам всю рекламу на сайте (укажите свой ник в строку Ваше имя)!

×
  
Magnet ссылка

Танцы. Сезон 3 [2016 г., ТВ-шоу, WEB-DLRip-AVC] pb.wtf

Танцы. Сезон 3 через торрент pb.wtf

Размер: 32.08 GB | Добавлен: 4 года 1 мес. назад | Торрент скачан:11 раз
Смотреть онлайн Танцы. Сезон 3 | Скачать    Ребята, помогите собрать деньги на оплату серверов!!!

02-09-2017 18:01 Танцы. Сезон 3 Скачать торрент  

Информация о фильме
Оригинальное название: Танцы
Год выпуска: 2016
Жанр: Реалити-шоу
Выпущено: Россия, ТНТ
Ведущий: Ляйсан Утяшева

Описание: Грандиозное шоу, участники которого будут бороться за звание лучшего танцора страны и главный приз - 3 000 000 рублей. Жюри, они же наставники конкурсантов - лучшие российские хореографы Егор Дружинин и Мигель.

Файл
Качество: WEB-DLRip (AVC)
Видео: MPEG-4 AVC, ~ 2000 Кбит/с, 1024х576
Аудио: AC3, 2 ch, 192 Кбит/с
Продолжительность: 22 x ~ 01:39:00
Общее

Уникальный идентификатор : 190178246949213118738004207411324277625 (0x8F12FF80AACF12FE9CBD9B27F2705379)

Полное имя : D:ВидеоТанцы.3 сезон.2016.WEB-DLRip-AVC by Vovan366(ExKinoRay)�2.Калининград.27.08.2016. WEB-DLRip-AVC by Vovan366(ExKinoRay).mkv

Формат : Matroska

Версия формата : Version 2

Размер файла : 1,46 Гбайт

Продолжительность : 1 ч. 32 м.

Общий поток : 2270 Кбит/сек

Дата кодирования : UTC 2016-08-28 03:29:33

Программа кодирования : mkvmerge v7.8.0 ('River Man') 32bit built on Apr 3 2015 12:11:22

Библиотека кодирования : libebml v1.3.1 + libmatroska v1.4.2



Видео

Идентификатор : 1

Формат : AVC

Формат/Информация : Advanced Video Codec

Профиль формата : High@L4.1

Параметр CABAC формата : Да

Параметр ReFrames формата : 10 кадров

Идентификатор кодека : V_MPEG4/ISO/AVC

Продолжительность : 1 ч. 32 м.

Битрейт : 2076 Кбит/сек

Ширина : 1024 пикселя

Высота : 576 пикселей

Соотношение сторон : 16:9

Режим частоты кадров : Постоянный

Частота кадров : 25,000 кадров/сек

Цветовое пространство : YUV

Субдискретизация насыщенности : 4:2:0

Битовая глубина : 8 бит

Тип развёртки : Прогрессивная

Бит/(Пиксели*Кадры) : 0.141

Размер потока : 1,31 Гбайт (90%)

Библиотека кодирования : x264 core 146 r2538 121396c

Настройки программы : cabac=1 / ref=10 / deblock=1:-3:-3 / analyse=0x3:0x113 / me=umh / subme=10 / psy=1 / psy_rd=1.00:0.05 / mixed_ref=1 / me_range=32 / chroma_me=1 / trellis=2 / 8x8dct=1 / cqm=0 / deadzone=21,11 / fast_pskip=0 / chroma_qp_offset=-3 / threads=6 / lookahead_threads=1 / sliced_threads=0 / nr=0 / decimate=0 / interlaced=0 / bluray_compat=0 / constrained_intra=0 / bframes=10 / b_pyramid=2 / b_adapt=2 / b_bias=0 / direct=3 / weightb=1 / open_gop=0 / weightp=2 / keyint=250 / keyint_min=25 / scenecut=40 / intra_refresh=0 / rc_lookahead=40 / rc=2pass / mbtree=0 / bitrate=2076 / ratetol=1.0 / qcomp=0.60 / qpmin=0 / qpmax=69 / qpstep=4 / cplxblur=20.0 / qblur=0.5 / vbv_maxrate=14000 / vbv_bufsize=14000 / nal_hrd=none / filler=0 / ip_ratio=1.40 / pb_ratio=1.30 / aq=1:1.00

Default : Да

Forced : Нет

Основные цвета : BT.709

Характеристики трансфера : BT.709

Коэффициенты матрицы : BT.709



Аудио

Идентификатор : 2

Формат : AC-3

Формат/Информация : Audio Coding 3

Расширение режима : CM (complete main)

Параметр Endianness формата : Big

Идентификатор кодека : A_AC3

Продолжительность : 1 ч. 32 м.

Вид битрейта : Постоянный

Битрейт : 192 Кбит/сек

Каналы : 2 канала

Расположение каналов : Front: L R

Частота : 48,0 КГц

Битовая глубина : 16 бит

Метод сжатия : С потерями

Размер потока : 126 Мбайт (8%)

Default : Да

Forced : Нет
pb.wtf



Скачать Танцы. Сезон 3 через торрент http://s019.radikal.ru/i632/1608/f4/f3b5abe2e59d.png Скачать, смотреть онлайн Танцы. Сезон 3 [2016 г., ТВ-шоу, WEB-DLRip-AVC] бесплантно в хорошем качестве Описание: Грандиозное шоу, участники которого будут бороться за звание лучшего танцора страны и главный приз - 3 000 000 рублей. Жюри, они ... 10 10 2
Info! Золотая раздача, скачанное не засчитывается.
Торрент: Зарегистрирован [2017-09-02 18:01] · скачан: 11 раз
Статус: √ проверено
Размер: 32.08 GB
Как cкачать? Как скачать Танцы. Сезон 3 через торрент | UTorrent

% Раздел Тема Автор DL S | L
Мультсериалы [ 20.52 GB ] Звёздные войны: Повстанцы / Star Wars Rebels / Сезон: 3 / Серия 1-21 из 21 [2016 мультфильм WEB-DLRip 1080p] MVO LostFilm MicroCharmelle Скачать
1 | 0
Мультсериалы [ 4.58 GB ] Звёздные войны: Повстанцы / Star Wars Rebels / Сезон: 3 / Серия 1-21 из 21 [2016 мультфильм WEB-DLRip] MVO LostFilm MicroCharmelle Скачать
1 | 0
Мультсериалы [ 14.68 GB ] Звёздные войны: Повстанцы / Star Wars Rebels / Сезон: 3 / Серия 1-21 из 21 [2016 мультфильм WEB-DLRip 720p] MVO LostFilm MicroCharmelle Скачать
1 | 0
ТНТ [ 25.06 GB ] Танцы. Сезон: №3 / Выпуск 1-20 из ??? [2016 ТВ-шоу SATRip Оригинальный] bober100 Скачать
1 | 0
T Релизы по Парсеру [Игры, Сериалы и Фильмы и другое...] [ 45.93 GB ] Танцы / Сезон 3 / Выпуск 1-18 из ??? [2016 ТВ-шоу WEB-DLRip 720p Оригинальный] -Lexx- Скачать
1 | 0

28-11-2019 20:33  

Отключить всю рекламу на сайте

    Дорогой пользователь! Огромная просьба, поблагодарите релизера, оцените раздачу и оставьте свои комментарий, если Вы скачали Танцы. Сезон 3 через торрент бесплатно!
    Комментировать посты могут только пользователи прошедшие не сложную регистрацию
    Показать сообщения:    

    Танцы. Сезон 3 через торрент
    Скачать бесплатно Танцы. Сезон 3
    Танцы. Сезон 3 скачать торрент
    Танцы. Сезон 3 смотреть онлайн
    Cкачать фильм Танцы. Сезон 3 бесплатно
    Танцы. Сезон 3 скачать торрент в хорошем качестве
    Танцы. Сезон 3 смотреть онлайн бесплатно в хорошем качестве


    Вы не можете начинать темы
    Вы не можете отвечать на сообщения
    Вы не можете редактировать свои сообщения
    Вы не можете удалять свои сообщения
    Вы не можете голосовать в опросах
    Вы не можете прикреплять файлы к сообщениям
    Вы можете скачивать файлы