Ссылка на приватное зеркало нашего сайта всего за 1$. Внимание количество ограничено!!!

2 сезон

iTunes

1 сезон

1

2 сезон

2 сезон

iTunes

1 сезон

RePack

30

Новинка

ВАЖНО

ИГРА 18+

pack

RePack

MK11
pack

Забери бонус

RePack

jed

!!Акция!!

Alien_Rage

RePack

fifa19

RePack

Assassins Creed: Odyssey

RePack

NEED FOR SPEED™ PAYBACK

4 сезон

9 сезон

Бесстыжие 9 сезон

Все сериалы

все сериалы на PB.wtf

RePack

FAR CRY 5
  

Нарки / Нарко / Барыги / Narcos / Сезон: 3 / Серии 1-10 из 10 (Андрес Байс, Фернандо Коимбра, Гильермо Наварро) [2015, США, драма, криминал, WEBRip 720р] MVO [BaibaKo] pb.wtf

Нарки через торрент pb.wtf

Размер: 13.91 GB | Добавлен: 3 года 2 мес. назад | Торрент скачан:67 раз
Скачать  

03-09-2017 00:53 Нарки Скачать торрент  

Нарки / Нарко / Барыги / Narcos


  • Год выпуска: 2017
  • Страна: США, Франция
  • Жанр: драма, криминал
  • Продолжительность: ~00:54:00 (Серия)
  • Перевод: Профессиональный многоголосый закадровый [BaibaKo]
  • Режиссер: Андрес Байс, Фернандо Коимбра, Гильермо Наварро
  • В ролях:

    Вагнер Моура (Pablo Escobar), Морис Комт (Horatio Carrillo), Джоанна Кристи (Connie Murphy), Бойд Холбрук (Steve Murphy), Педро Паскаль (Javier Peña), Стефани Сигман (Valeria Velez), Роберто Урбина (Fabio), Ана де ла Регера (Elisa), Даниэль Кеннеди (Ambassador Noonan), Диего Катаньо (La Quica), Хорхе А. Хименес (Poison), Паулина Гайтан (Tata Escobar)

  • Описание:
    Хроника криминальной жизни колумбийского наркобарона Пабло Эскобара.
    Преступную деятельность будущий влиятельнейший наркобарон Колумбии Пабло Эскобар начал ещё в детстве с воровства и мошенничества, после он перешёл на рэкет, вооружённые налёты и похищение людей. Когда вокруг Пабло сформировалась мощная группировка он решил расширяться в сторону самого перспективного и бездонного рынка - поставки колумбийского кокаина в Соединённые Штаты, где основной проблемой Управления по борьбе с наркотиками до этого момента были лишь добродушные хиппи с их марихуаной.
    Американские нарки в кратчайшие сроки озолотили юного Пабло и дали ему неограниченную Влacть на родине, где наркобарон, благодаря своим вложениям в местную экономику, стал настоящим героем. Вместе с несколькими влиятельными коллегами Эскобар создаёт Медельинский кокаиновый картель, закупает всевозможную технику для контрабанды своей продукции на север и открывает множество лабораторий по производству белого порошка в безлюдных джунглях. Держа в страхе политиков Колумбии Пабло всегда добивался желаемого любой ценой, предоставляя потенциальным жертвам выбор между получением взятки и пулей в голову.
  • Рейтинг:



  • Качество: WEBRip 720р
  • Формат: :MKV
  • Видео кодек: AVC
  • Аудио кодек: AC3
  • Видео: 2627 Кбит/сек, 1280*720 (16:9), в 23,976 (24000/1001) кадра/сек, AVC
  • Аудио №1: русский 384 Кбит/сек, 48,0 КГц, 16 бит, 6 каналов, AC-3 |[BaibaKo]|
  • Аудио №2: английский 384 Кбит/сек, 48,0 КГц, 16 бит, 6 каналов, AC-3
  • Релиз от: GEKADOL

    Код:

    Внимание! Раздача ведётся путём добавления новых серий; при каждом добавлении создаётся новый торрент. Чтобы начать докачку новой серии, пользователям необходимо сделать следующее:
    (1) остановить скачивание,
    (2) удалить старый торрент у себя из клиента (старые серии удалять не надо),
    (3) скачать новый торрент и запустить его у себя в клиенте вместо старого, при этом указать клиенту путь в старую папку куда и должно происходить скачивание новых серий.
    Ваш клиент при этом должен произвести хеширование (проверку) старой папки (если не производит сам - помогите ему сделать это), и будет докачивать только те серии которых у вас ещё нет. Старые серии при этом не удаляются, а продолжают раздаваться!
    Eсли вы уже удалили старые серии, то предотвратить повторную закачку старых серий можно, отжав галочку в соответствующих местах при запуске нового торрента. По возможности, желательно не удалять старые серии как можно дольше чтобы релизёр не столько продолжал раздавать старые серии, а смог сконцентрироваться на новых.


    Общее
    Уникальный идентификатор : 189862761479508986631368031155134470668 (0x8ED63CDE373DA16B85BFF4A59BCD1A0C)
    Полное имя : F:\Нарки (Narcos 3)\Narcos.s03e01.HD720p.WEBRip.Rus.Eng.BaibaKo.tv.mkv
    Формат : Matroska
    Версия формата : Version 4 / Version 2
    Размер файла : 1,27 Гбайт
    Продолжительность : 53 м. 29 с.
    Режим общего битрейта : Переменный
    Общий поток : 3397 Кбит/сек
    Дата кодирования : UTC 2017-09-03 00:32:21
    Программа кодирования : mkvmerge v7.1.0 ('Good Love') 64bit built on Jul 27 2014 13:06:55
    Библиотека кодирования : libebml v1.3.0 + libmatroska v1.4.1

    Видео
    Идентификатор : 1
    Формат : AVC
    Формат/Информация : Advanced Video Codec
    Профиль формата : Main@L3.1
    Параметр CABAC формата : Да
    Параметр RefFrames формата : 3 кадра
    Идентификатор кодека : V_MPEG4/ISO/AVC
    Продолжительность : 53 м. 29 с.
    Вид битрейта : Переменный
    Битрейт : 2627 Кбит/сек
    Максимальный битрейт : 3915 Кбит/сек
    Ширина : 1280 пикселей
    Высота : 720 пикселей
    Соотношение сторон : 16:9
    Режим частоты кадров : Постоянный
    Частота кадров : 23,976 (24000/1001) кадра/сек
    Цветовое пространство : YUV
    Субдискретизация насыщенности : 4:2:0
    Битовая глубина : 8 бит
    Тип развёртки : Прогрессивная
    Бит/(Пиксели*Кадры) : 0.119
    Размер потока : 1005 Мбайт (77%)
    Default : Нет
    Forced : Нет

    Аудио #1
    Идентификатор : 2
    Формат : AC-3
    Формат/Информация : Audio Coding 3
    Параметр Endianness формата : Big
    Идентификатор кодека : A_AC3
    Продолжительность : 53 м. 29 с.
    Вид битрейта : Постоянный
    Битрейт : 384 Кбит/сек
    Каналы : 6 каналов
    Расположение каналов : Front: L C R, Side: L R, LFE
    Частота : 48,0 КГц
    Частота кадров : 31,250 кадров/сек (1536 SPF)
    Битовая глубина : 16 бит
    Метод сжатия : С потерями
    Задержка видео : 18 мс.
    Размер потока : 147 Мбайт (11%)
    Язык : Russian
    ServiceKind/String : Complete Main
    Default : Да
    Forced : Нет

    Аудио #2
    Идентификатор : 3
    Формат : AC-3
    Формат/Информация : Audio Coding 3
    Параметр Endianness формата : Big
    Идентификатор кодека : A_AC3
    Продолжительность : 53 м. 29 с.
    Вид битрейта : Постоянный
    Битрейт : 384 Кбит/сек
    Каналы : 6 каналов
    Расположение каналов : Front: L C R, Side: L R, LFE
    Частота : 48,0 КГц
    Частота кадров : 31,250 кадров/сек (1536 SPF)
    Битовая глубина : 16 бит
    Метод сжатия : С потерями
    Задержка видео : 28 мс.
    Размер потока : 147 Мбайт (11%)
    Язык : English
    ServiceKind/String : Complete Main
    Default : Нет
    Forced : Нет



    ВНИМАНИЕ! В сериале присутствуют сцены сексуального характера, жестокости и ненормативная лексика!!!!!!Скриншоты:
    скриншот   скриншот   скриншот   скриншот   скриншот   скриншот   скриншот  
    скриншот  

    Раздача ведётся путём добавления новых серий. Добавлена 5-10 серия (06.09.2017).Просьба перекачать торрент файл.

    pb.wtf



  • Скачать Нарки через торрент http://pic1.kartinco.top/images/11/tslhk.jpg Скачать фильм Нарки через торрент бесплантно в хорошем качестве Описание: Хроника криминальной жизни колумбийского наркобарона Пабло Эскобара.Преступную деятельность будущий влиятельнейший наркобарон ... 8.7 10 6
    Info! Золотая раздача, скачанное не засчитывается.
    Торрент: Зарегистрирован [2017-09-06 11:38] · скачан: 67 раз
    Статус: √ проверено
    Размер: 13.91 GB
    Как cкачать? Как скачать Нарки через торрент | qTorrent

    % Раздел Тема Автор DL S | L
    Зарубежные сериалы [ 14 GB ] Нарки / Нарко / Барыги / Narcos / Сезон: 3 / Серии 1-10 из 10 [2017 WEB-DL 720p] MVO [NewStudio] GEKADOL Скачать
    1 | 0
    Зарубежные сериалы [ 6.84 GB ] Нарки / Нарко / Барыги / Narcos / Сезон: 3 / Серии 1-10 из 10 [2017 WEB-DLRip] MVO [NewStudio] GEKADOL Скачать
    1 | 0
    Зарубежные сериалы [ 10.91 GB ] Нарки / Нарко / Барыги / Narcos / Сезон 3 / Серии 1-10 из 10 [2017 WEB-DL 720p] DVO [SunshineStudio] bober100 Скачать
    1 | 0


    Последний раз редактировалось: GEKADOL (2017-09-06 11:38), всего редактировалось 9 раз(а)

    28-11-2019 20:33  

    Отключить всю рекламу на сайте

    03-09-2017 07:18 Нарки Скачать торрент  

    сериал хорошpb.wtf



    04-09-2017 11:01 Нарки Скачать торрент  

    отличное продолжениеpb.wtf



      Дорогой пользователь! Огромная просьба, поблагодарите релизера, оцените раздачу и оставьте свои комментарий, если Вы скачали Нарки через торрент бесплатно! Внесите свою лепту в развитие PiratBit!
      Комментировать посты могут только пользователи прошедшие не сложную регистрацию
      Показать сообщения:    

      Нарки через торрент
      Скачать бесплатно Нарки
      Нарки скачать торрент
      Нарки смотреть онлайн
      Cкачать фильм Нарки бесплатно
      Нарки скачать торрент в хорошем качестве
      Нарки смотреть онлайн бесплатно в хорошем качестве


      Вы не можете начинать темы
      Вы не можете отвечать на сообщения
      Вы не можете редактировать свои сообщения
      Вы не можете удалять свои сообщения
      Вы не можете голосовать в опросах
      Вы не можете прикреплять файлы к сообщениям
      Вы можете скачивать файлы