Ссылка на приватное зеркало нашего сайта всего за 1$. Внимание количество ограничено!!!

2 сезон

iTunes

1 сезон

1

iTunes

iTunes

iTunes

1 сезон

RePack

30

ИГРА 18+

pack

ВАЖНО

!!Акция!!

Alien_RageХит недели

RePack

MK11
pack

Забери бонус

RePack

jed

!!Акция!!

Alien_Rage

RePack

fifa19

RePack

Assassins Creed: Odyssey

RePack

NEED FOR SPEED™ PAYBACK

4 сезон

9 сезон

Бесстыжие 9 сезон

Все сериалы

все сериалы на PB.wtf

RePack

FAR CRY 5
  

Заячья школа / Rabbit school (Уте фон Мюнхов-Поль) [2017 г., Мультфильм, семейный, WEB-DLRip, Дубляж iTunes] pb.wtf

Заячья школа через торрент pb.wtf

Размер: 745 MB | Добавлен: 3 года 1 мес. назад | Торрент скачан:370 раз
Скачать  

03-09-2017 08:24 Заячья школа Скачать торрент  

Заячья школа / Rabbit school
Год выпуска: 2017
Страна: Германия
Жанр: Мультфильм, семейный
Продолжительность: 01:12:33
Перевод: Дубляж iTunes
Субтитры: нет

Режиссер: Уте фон Мюнхов-Поль

В ролях: Ноа Леви, Зента Бергер, Фридрих фон Тун, Дженни Мелина Витец, Макс Богут, Бен Боксберг, Юля Бёве, Дирк Петрик, Константин фон Ящерофф, Тим Сэндер

Описание: Макс, любитель городской суеты и молодежных развлечений, попадает туда, где ему совсем не место — в старомодную заячью школу. Но чем дольше он здесь находится, тем больше узнает о чудесном светлом празднике, ценности дружбы и собственном предназначении.

Качество: WEB-DLRip
Формат: AVI
Видео кодек: XviD
Аудио кодек: MP3
Видео: 688x368 (1.85:1), 25 fps, XviD build 73 ~1297 kbps
Аудио#1: 48 kHz, MPEG Layer 3, 2 ch, ~128.00 kbps
скриншот   скриншот   скриншот   скриншот  

General
Complete name : H:\релизы.торрентфайл\3aja4ja.Wk0La.2017.D.WEB-DLRip
Format : AVI
Format/Info : Audio Video Interleave
File size : 745 MiB
Duration : 1h 12mn
Overall bit rate : 1 435 Kbps
Writing application : VirtualDubMod 1.5.10.3 | www.virtualdub-fr.org || (build 2550/release)
Writing library : VirtualDubMod build 2550/release

Video
ID : 0
Format : MPEG-4 Visual
Format profile : Advanced Simple@L5
Format settings, BVOP : 1
Format settings, QPel : No
Format settings, GMC : No warppoints
Format settings, Matrix : Custom
Codec ID : XVID
Codec ID/Hint : XviD
Duration : 1h 12mn
Bit rate : 1 297 Kbps
Width : 688 pixels
Height : 368 pixels
Display aspect ratio : 1.85:1
Frame rate : 25.000 fps
Color space : YUV
Chroma subsampling : 4:2:0
Bit depth : 8 bits
Scan type : Progressive
Compression mode : Lossy
Bits/(Pixel*Frame) : 0.205
Stream size : 673 MiB (90%)
Writing library : XviD 73

Audio
ID : 1
Format : MPEG Audio
Format version : Version 1
Format profile : Layer 3
Codec ID : 55
Codec ID/Hint : MP3
Duration : 1h 12mn
Bit rate mode : Constant
Bit rate : 128 Kbps
Channel(s) : 2 channels
Sampling rate : 48.0 KHz
Compression mode : Lossy
Stream size : 66.4 MiB (9%)
Alignment : Aligned on interleaves
Interleave, duration : 40 ms (1.00 video frame)
Interleave, preload duration : 504 ms
Writing library : LAME3.99r
Encoding settings : -m s -V 4 -q 2 -lowpass 17 -b 128

pb.wtf



Скачать Заячья школа через торрент http://i96.fastpic.ru/big/2017/0902/fb/defc85f1421d94c81a8e5729077e00fb.jpg Скачать фильм Заячья школа через торрент бесплантно в хорошем качестве Описание: Макс, любитель городской суеты и молодежных развлечений, попадает туда, где ему совсем не место — в старомодную заячью школу. Но ... 10 10 5
Торрент: Зарегистрирован [2017-09-03 08:24] · скачан: 370 раз
Статус: √ проверено
Размер: 745 MB
Как cкачать? Как скачать Заячья школа через торрент | qTorrent

% Раздел Тема Автор DL S | L
Зарубежные Мультфильмы (WEB-DL 720p, 1080p) [ 2.79 GB ] Заячья школа / Rabbit school [2017 Мультфильм WEB-DL 1080p ] nn99nn Скачать
1 | 0

28-11-2019 20:33  

Отключить всю рекламу на сайте

03-09-2017 19:20 Заячья школа Скачать торрент  

Спасибо за мультфильм! Теперь хотелось бы ещё и качества!pb.wtf



08-09-2017 13:57 Заячья школа Скачать торрент  

Vladislav@Pskov писал(а):

Спасибо за мультфильм! Теперь хотелось бы ещё и качества!

Держите качество! Заячья школа 1080ppb.wtf



    Дорогой пользователь! Огромная просьба, поблагодарите релизера, оцените раздачу и оставьте свои комментарий, если Вы скачали Заячья школа через торрент бесплатно! Внесите свою лепту в развитие PiratBit!
    Комментировать посты могут только пользователи прошедшие не сложную регистрацию
    Показать сообщения:    

    Заячья школа через торрент
    Скачать бесплатно Заячья школа
    Заячья школа скачать торрент
    Заячья школа смотреть онлайн
    Cкачать фильм Заячья школа бесплатно
    Заячья школа скачать торрент в хорошем качестве
    Заячья школа смотреть онлайн бесплатно в хорошем качестве


    Вы не можете начинать темы
    Вы не можете отвечать на сообщения
    Вы не можете редактировать свои сообщения
    Вы не можете удалять свои сообщения
    Вы не можете голосовать в опросах
    Вы не можете прикреплять файлы к сообщениям
    Вы можете скачивать файлы