Ссылка на приватное зеркало нашего сайта всего за 1$. Внимание количество ограничено!!!

2 сезон

iTunes

1 сезон

1

iTunes

iTunes

iTunes

1 сезон

RePack

30

ИГРА 18+

pack

ВАЖНО

!!Акция!!

Alien_RageХит недели

RePack

MK11
pack

Забери бонус

RePack

jed

!!Акция!!

Alien_Rage

RePack

fifa19

RePack

Assassins Creed: Odyssey

RePack

NEED FOR SPEED™ PAYBACK

4 сезон

9 сезон

Бесстыжие 9 сезон

Все сериалы

все сериалы на PB.wtf

RePack

FAR CRY 5
  

Заклятые подруги / Серия 1-4 из 4 / (Андрей Селиванов) [2017 г., Мелодрама, SATRip] pb.wtf

Заклятые подруги через торрент pb.wtf

Размер: 2.3 GB | Добавлен: 3 года 1 мес. назад | Торрент скачан:90 раз
Скачать  

03-09-2017 08:53 Заклятые подруги Скачать торрент  

Заклятые подруги / Серия 1-4 из 4 /
Год выпуска: 2017
Страна: Россия
Жанр: Мелодрама
Продолжительность: 4 х ~00: 44:35
Субтитры: нет

Режиссер: Андрей Селиванов

В ролях: Анастасия Дубровина, Ирина Антоненко, Алексей Сидоров, Олег Филипчик, Илья Барабанов, Михаил Маликов, Екатерина Догилева

Описание: Сложно найти людей более непохожих, чем лучшие подруги Аня и Таня. Когда плохо одной, другая всегда придет на помощь. Так было бы всегда, если бы не Игорь. Жених Тани, не застав невесту, решает воспользоваться случаем и переспать с безответной Аней. Несчастная Аня решает рассказать обо всем подруге. Но беременная Таня, которая уже готовится к свадьбе, выбирает Игоря, и прогоняет Аню из своей жизни. Аня тоже оказывается беременной, и тоже — от Игоря. Пока счастливая Таня позирует для глянцевых журналов и выбирает наряды для малыша, Аня влачит жалкое существование. Таня и Аня рожают почти одновременно. Но здоровый малыш Тани умирает от неизвестной инфекции, а сын Ани идет на поправку. Налаживается и личная жизнь Ани — пустив квартиранта, чтобы заработать хоть немного денег, она обретает личное счастье. Толик и Аня подумывают о том, чтобы пожениться, и Толик не против усыновить ребенка Ани. Таня трагически переживает смерть ребенка, и это сказывается на ее здоровье. Отец Игоря, узнав о внебрачном ребенке, решает выкупить внука, малыша Ани. Аня уверена — это идея Тани. Она готова на все, чтобы остановить бывшую подругу и спасти своего сына…

Качество: SATRip
Формат: AVI
Видео кодек: XviD
Аудио кодек: MP3
Видео: 720x400 (1.80:1), 25 fps, XviD build 50 ~1800 kbps
Аудио#1: 48 kHz, MPEG Layer 3, 2 ch, ~128.00 kbps
скриншот   скриншот   скриншот   скриншот  

General
Complete name : H:\релизы.торрентфайл\Zakljatye.podrugi.SATRip.[www.riperam.org]\Zakljatye.podrugi.02.SATRip.[www.riperam.org].avi
Format : AVI
Format/Info : Audio Video Interleave
File size : 636 MiB
Duration : 45mn 52s
Overall bit rate : 1 938 Kbps
Writing application : VirtualDubMod 1.5.10.3 | www.virtualdub-fr.org || (build 2550/release)
Writing library : VirtualDubMod build 2550/release

Video
ID : 0
Format : MPEG-4 Visual
Format profile : Advanced Simple@L5
Format settings, BVOP : 2
Format settings, QPel : No
Format settings, GMC : No warppoints
Format settings, Matrix : Default (H.263)
Codec ID : XVID
Codec ID/Hint : XviD
Duration : 45mn 52s
Bit rate : 1 800 Kbps
Width : 720 pixels
Height : 400 pixels
Display aspect ratio : 16:9
Frame rate : 25.000 fps
Color space : YUV
Chroma subsampling : 4:2:0
Bit depth : 8 bits
Scan type : Progressive
Compression mode : Lossy
Bits/(Pixel*Frame) : 0.250
Stream size : 591 MiB (93%)
Writing library : XviD 1.2.1 (UTC 2008-12-04)

Audio
ID : 1
Format : MPEG Audio
Format version : Version 1
Format profile : Layer 3
Mode : Joint stereo
Mode extension : MS Stereo
Codec ID : 55
Codec ID/Hint : MP3
Duration : 45mn 52s
Bit rate mode : Constant
Bit rate : 128 Kbps
Channel(s) : 2 channels
Sampling rate : 48.0 KHz
Compression mode : Lossy
Stream size : 42.0 MiB (7%)
Alignment : Aligned on interleaves
Interleave, duration : 40 ms (1.00 video frame)
Interleave, preload duration : 504 ms
Writing library : LAME3.99r
Encoding settings : -m j -V 4 -q 9 -lowpass 17 -b 128

pb.wtf



Скачать Заклятые подруги через торрент http://i93.fastpic.ru/big/2017/0903/14/050e023b910e1ac486de6cbb6c95c114.jpg Скачать фильм Заклятые подруги через торрент бесплантно в хорошем качестве Описание: Сложно найти людей более непохожих, чем лучшие подруги Аня и Таня. Когда плохо одной, другая всегда придет на помощь. Так было бы ... 10 10 2
Торрент: Зарегистрирован [2017-09-03 08:53] · скачан: 90 раз
Статус: √ проверено
Размер: 2.3 GB
Как cкачать? Как скачать Заклятые подруги через торрент | qTorrent

% Раздел Тема Автор DL S | L
Наши сериалы [ 2.01 GB ] Заклятые подруги / Серии: 1-4 из 4 [2017SATRip-AVC] aleksan55 Скачать
1 | 0

28-11-2019 20:33  

Отключить всю рекламу на сайте

    Дорогой пользователь! Огромная просьба, поблагодарите релизера, оцените раздачу и оставьте свои комментарий, если Вы скачали Заклятые подруги через торрент бесплатно! Внесите свою лепту в развитие PiratBit!
    Комментировать посты могут только пользователи прошедшие не сложную регистрацию
    Показать сообщения:    

    Заклятые подруги через торрент
    Скачать бесплатно Заклятые подруги
    Заклятые подруги скачать торрент
    Заклятые подруги смотреть онлайн
    Cкачать фильм Заклятые подруги бесплатно
    Заклятые подруги скачать торрент в хорошем качестве
    Заклятые подруги смотреть онлайн бесплатно в хорошем качестве


    Вы не можете начинать темы
    Вы не можете отвечать на сообщения
    Вы не можете редактировать свои сообщения
    Вы не можете удалять свои сообщения
    Вы не можете голосовать в опросах
    Вы не можете прикреплять файлы к сообщениям
    Вы можете скачивать файлы