новый адрес
Ссылка на приватное зеркало всего за 1$. Внимание количество ограничено!!!

iTunes

1+1

iTunes

мы

iTunes

1

iTunes

Чернобыль

iTunes

Ральф против интернета

Лицензия

ПШазам

Лицензия

Оно 2

Лицензия

30
pack

Вам бонус

ВАЖНО

!!Акция!!

Alien_RageХит недели

RePack

Resident Evil 21

ИГРА 18+

pack

RePack

jed

!!Акция!!

Alien_Rage

RePack

fifa19

RePack

Assassins Creed: Odyssey

RePack

NEED FOR SPEED™ PAYBACK

3 сезон

9 сезон

Бесстыжие 9 сезон

Все сериалы

все сериалы на PB.wtf

RePack

FAR CRY 5
Ребята, катастрофически не хватает 1900р. для оплаты серверов за Октябрь (всвязи с блокировками трафик упал в 3 раза), 1-2р., выручайте.
  

Песня первой любви (Лаэрт Вагаршян, Юрий Ерзинкян) [1958, СССР, мюзикл, мелодрама, SATRip от AVP Studio] pb.wtf

Песня первой любви через торрент pb.wtf

Размер: 1.09 GB | Добавлен: 2 года 2 мес. назад | Торрент скачан:12 раз
Скачать  

03-09-2017 09:02 Песня первой любви Скачать торрент  

Песня первой любви
Страна: СССР
Производство: Арменфильм

Жанр: мюзикл, мелодрама
Год выпуска: 1958
Продолжительность: 01:37:22

Перевод: Не требуется
Cубтитры: нет
Оригинальная аудиодорожка: русский

Режиссер: Лаэрт Вагаршян, Юрий Ерзинкян

В ролях:
Хорен Абрамян, Грачья Нерсесян, Вагарш Вагаршян, Элеонора Судакова, Семён Соколовский, Ольга Гулазян, Тамара Ланько, Николай Тер-Семенов, Верджалуйс Мириджанян, Ара (Арий) Согомонян, Иван Грикуров, Адиль Селимханов, Гурген Ген, Амасий Мартиросян, Татул Дилакян, Т. Бахшинян...
Об актёрах подробней

Описание:
Этот фильм - классическая, очень профессионально сделанная мелодрама. Картина получила признание зрителей не только благодаря прекрасной игре актёров, но и запоминающимся песням. Это был первый советский послевоенный фильм, в котором прозвучал джаз. Исполнителем основной песни фильма, которая дала ему название, является Сергей Давидян. Автором музыки этой песни, как и популярных до сих пор песен «Еревани сирун ахчик» («Ереванская красавица»), «Им Ереван» («Мой Ереван»), «Ду им сиро арев» («Ты всех милей и нежней»), также звучащим в этой ленте, является Арно Бабаджанян. Впоследствии песня «Первой любви» стала одним из шлягеров конца 50-х годов и почти ежедневно звучала по радио в исполнении Рашида Бейбутова. Среди современных исполнителей песни следует отметить Александра Буйнова.
Фильм стал лидером проката 1958 г. - 24,6 млн зрителей.

Источник: DVB
Качество видео: SATRip
Формат видео: AVI

Видео: 672x496 (4:3), 25 fps, XviD ~ 1399 kbps avg, 0.168 bit/pixel
Аудио: 48 kHz, Dolby Digital AC3 2.0, 192 kbps

Раздача от:
Общее
Полное имя : Pesnya.pervoy.lyubvi.1958.SATRip_[New-team]_by_AVP_Studio.avi
Формат : AVI
Формат/Информация : Audio Video Interleave
Размер файла : 1,09 Гбайт
Продолжительность : 1 ч. 37 м.
Общий поток : 1601 Кбит/сек
Программа кодирования : VirtualDubMod 1.5.10.3 | www.virtualdub-fr.org || (build 2550/release)
Библиотека кодирования : VirtualDubMod build 2550/release

Видео
Идентификатор : 0
Формат : MPEG-4 Visual
Профиль формата : Advanced Simple@L5
Параметр BVOP формата : 1
Параметр QPel формата : Нет
Параметр GMC формата : Без точки перехода
Параметр матрицы формата : Выборочная
Идентификатор кодека : XVID
Идентификатор кодека/Подсказка : XviD
Продолжительность : 1 ч. 37 м.
Битрейт : 1399 Кбит/сек
Ширина : 672 пикселя
Высота : 496 пикселей
Соотношение сторон : 4:3
Частота кадров : 25,000 кадров/сек
Цветовое пространство : YUV
Субдискретизация насыщенности : 4:2:0
Битовая глубина : 8 бит
Тип развёртки : Прогрессивная
Метод сжатия : С потерями
Бит/(Пиксели*Кадры) : 0.168
Размер потока : 974 Мбайт (87%)
Библиотека кодирования : XviD 73

Аудио
Идентификатор : 1
Формат : AC-3
Формат/Информация : Audio Coding 3
Параметр Endianness формата : Big
Идентификатор кодека : 2000
Продолжительность : 1 ч. 37 м.
Вид битрейта : Постоянный
Битрейт : 192 Кбит/сек
Каналы : 2 канала
Расположение каналов : Front: L R
Частота : 48,0 КГц
Частота кадров : 31,250 кадров/сек (1536 SPF)
Битовая глубина : 16 бит
Метод сжатия : С потерями
Размер потока : 134 Мбайт (12%)
Выравнивание : Разделение по промежуткам
Продолжительность промежутка : 40 мс. (1,00 видеокадр)
Время предзагрузки промежутка : 500 мс
pb.wtf



Скачать Песня первой любви через торрент http://s019.radikal.ru/i637/1708/17/1c1c6474c28d.png Скачать фильм Песня первой любви через торрент бесплантно в хорошем качестве Описание:Этот фильм - классическая, очень профессионально сделанная мелодрама. Картина получила признание зрителей не только благодаря ... 5 10 1
Info! Золотая раздача, скачанное не засчитывается.
Торрент: Зарегистрирован [2017-09-03 09:02] · скачан: 12 раз
Статус: √ проверено
Размер: 1.09 GB
Как cкачать? Как скачать Песня первой любви через торрент | qTorrent

% Раздел Тема Автор DL S | L
Кино СССР [ 1.09 GB ] Песня первой любви [1958 СССР мюзикл SATRip-AVC от AVP Studio] AVP Studio Скачать
1 | 0
Кино СССР [ 746 MB ] Песня первой любви [1958 СССР мюзикл SATRip от AVP Studio] AVP Studio Скачать
1 | 0
    Дорогой пользователь! Огромная просьба, поблагодарите релизера, оцените раздачу и оставьте свои комментарий, если Вы скачали Песня первой любви через торрент бесплатно! Внесите свою лепту в развитие PiratBit!
    Комментировать посты могут только пользователи прошедшие не сложную регистрацию
    Показать сообщения:    

    Песня первой любви через торрент
    Скачать бесплатно Песня первой любви
    Песня первой любви скачать торрент
    Песня первой любви смотреть онлайн
    Cкачать фильм Песня первой любви бесплатно
    Песня первой любви скачать торрент в хорошем качестве
    Песня первой любви смотреть онлайн бесплатно в хорошем качестве


    Вы не можете начинать темы
    Вы не можете отвечать на сообщения
    Вы не можете редактировать свои сообщения
    Вы не можете удалять свои сообщения
    Вы не можете голосовать в опросах
    Вы не можете прикреплять файлы к сообщениям
    Вы можете скачивать файлы