Всегда рабочее зеркало просто перед .vidak.icu напиши любое слово или цифру, Пример http://9rq.vidak.icu

>

7.4

iTunes

7.4

2 сезон

9.4

1 сезон

1

7.4

2 сезон

7.2

iTunes

6.0

MVO

13

6.1

iTunes

8.3

Пиратка

30

ULTIMATE

pack

9.9

Лицензия

ВАЖНО

ИГРА 18+

pack

7.3

RePack

MK11

7.7

RePack

jed

7.8

RePack

fifa19

8.5

RePack

RDR2

RePack

NEED FOR SPEED™ PAYBACK

1 сезон

9 сезон

Бесстыжие 9 сезон

Все сериалы

все сериалы на PB.wtf

RePack

FAR CRY 5

Anonymous, доброй ночи, мы катастрофически не успеваем собрать деньги на оплату серверов, помогите нам пожалуйста 5,10,15р., для нас важна любая помощь . В качестве благодарности мы отключим Вам всю рекламу на сайте (укажите свой ник в строку Ваше имя)!

×
  
Magnet ссылка

Маленькие секреты / Пустяковая безобидная ложь / Little White Lies / Les petits mouchoirs [2010, драма, комедия, BDRip 720p от _denis_100 / NNNB] AVO + Original + Sub (Eng) pb.wtf

Маленькие секреты через торрент pb.wtf

Размер: 12.08 GB | Добавлен: 4 года 4 мес. назад | Торрент скачан:42 раза
Смотреть онлайн Маленькие секреты | Скачать    Ребята, помогите собрать деньги на оплату серверов!!!

03-09-2017 13:35 Маленькие секреты Скачать торрент  

Маленькие секреты / Пустяковая безобидная ложь / Little White Lies / Les petits mouchoirs
«The one thing friends can't escape is a few home truths»


Год выпуска: 2010
Страна: Франция
Жанр: Драма, комедия
Продолжительность: 02:34:12
Перевод: Авторский одноголосый
Субтитры: английские
Режиссер: Гийом Кане
В ролях: Франсуа Клюзе, Марион Котийяр, Бенуа Мажимель, Жилль Леллуш, Жан Дюжарден, Лорен Лафит, Валери Боннетон, Паскаль Арбийо, Энн Маривин, Луиз Моно, Матьё Шедид, Максим Нуччи, Сара Мартыньш, Эдуард Монтут, Клод Лелуш
Описание:
История друзей, которые по традиции отправляются провести совместный летний отдых на мыс Ферре неподалеку от Бордо. Но когда они начинают исповедоваться друг другу в своих грехах, атмосфера становится довольно напряженной.


Качество: BDRip 720p
Контейнер (Расширение): MKV
Видео: 1280x546, 9716 Кбит/сек, 23,976 кадр/сек, 0,579 Бит/[Пиксели*Кадры]
Аудио №1: русский / AC3 / 5.1 / 48 kHz / 640 kbps / |Авторский одноголосый, Д.Строев|
Аудио №2: английский / AC3 / 5.1 / 48 kHz / 640 kbps /
Навигация по главам(Чаптеры): естьАвтор рипа: Группа:
Format : Matroska
Format version : Version 2
File size : 12.1 GiB
Duration : 2h 34mn
Overall bit rate : 11.2 Mbps
Movie name : Little White Lies.(2010).BDRip.720p.[denis100]
Encoded date : UTC 2017-09-03 12:48:42
Writing application : mkvmerge v5.8.0 ('No Sleep / Pillow') built on Sep 2 2012 15:37:04
Writing library : libebml v1.2.3 + libmatroska v1.3.0

Video
ID : 1
Format : AVC
Format/Info : Advanced Video Codec
Format profile : High@L4.1
Format settings, CABAC : Yes
Format settings, ReFrames : 11 frames
Codec ID : V_MPEG4/ISO/AVC
Duration : 2h 34mn
Bit rate : 9 716 Kbps
Width : 1 280 pixels
Height : 546 pixels
Display aspect ratio : 2.35:1
Frame rate mode : Constant
Frame rate : 24.000 fps
Color space : YUV
Chroma subsampling : 4:2:0
Bit depth : 8 bits
Scan type : Progressive
Bits/(Pixel*Frame) : 0.579
Stream size : 10.5 GiB (87%)
Title : Little White Lies.(2010).BDRip.720p.[denis100]
Writing library : x264 core 152 r2851 ba24899
Encoding settings : cabac=1 / ref=11 / deblock=1:-3:-3 / analyse=0x3:0x133 / me=umh / subme=11 / psy=1 / psy_rd=1.00:0.05 / mixed_ref=1 / me_range=32 / chroma_me=1 / trellis=2 / 8x8dct=1 / cqm=0 / deadzone=21,11 / fast_pskip=0 / chroma_qp_offset=-3 / threads=6 / lookahead_threads=1 / sliced_threads=0 / nr=0 / decimate=1 / interlaced=0 / bluray_compat=0 / constrained_intra=0 / bframes=12 / b_pyramid=2 / b_adapt=2 / b_bias=0 / direct=3 / weightb=1 / open_gop=0 / weightp=2 / keyint=240 / keyint_min=24 / scenecut=40 / intra_refresh=0 / rc=crf / mbtree=0 / crf=16.8 / qcomp=0.60 / qpmin=0 / qpmax=69 / qpstep=4 / ip_ratio=1.40 / pb_ratio=1.30 / aq=1:0.95
Language : English
Default : Yes
Forced : No

Audio #1
ID : 2
Format : AC-3
Format/Info : Audio Coding 3
Mode extension : CM (complete main)
Format settings, Endianness : Big
Codec ID : A_AC3
Duration : 2h 34mn
Bit rate mode : Constant
Bit rate : 640 Kbps
Channel(s) : 6 channels
Channel positions : Front: L C R, Side: L R, LFE
Sampling rate : 48.0 KHz
Frame rate : 31.250 fps (1536 spf)
Compression mode : Lossy
Stream size : 706 MiB (6%)
Title : AVO, Д.Строев
Language : Russian
Default : Yes
Forced : No

Audio #2
ID : 3
Format : AC-3
Format/Info : Audio Coding 3
Mode extension : CM (complete main)
Format settings, Endianness : Big
Codec ID : A_AC3
Duration : 2h 34mn
Bit rate mode : Constant
Bit rate : 640 Kbps
Channel(s) : 6 channels
Channel positions : Front: L C R, Side: L R, LFE
Sampling rate : 48.0 KHz
Frame rate : 31.250 fps (1536 spf)
Compression mode : Lossy
Stream size : 706 MiB (6%)
Language : French
Default : No
Forced : No

Text
ID : 4
Format : UTF-8
Codec ID : S_TEXT/UTF8
Codec ID/Info : UTF-8 Plain Text
Language : English
Default : No
Forced : No

Menu
00:00:00.000 : en:Chapitre 1
00:04:33.333 : en:Chapitre 2
00:15:20.041 : en:Chapitre 3
00:29:40.291 : en:Chapitre 4
00:49:14.833 : en:Chapitre 5
00:55:11.250 : en:Chapitre 6
01:02:43.625 : en:Chapitre 7
01:07:24.333 : en:Chapitre 8
01:13:53.166 : en:Chapitre 9
01:16:53.500 : en:Chapitre 10
01:21:36.958 : en:Chapitre 11
01:41:36.625 : en:Chapitre 12
01:46:31.500 : en:Chapitre 13
01:59:59.166 : en:Chapitre 14
02:12:44.458 : en:Chapitre 15
02:16:23.250 : en:Chapitre 16
02:19:28.166 : en:Chapitre 17
02:29:50.750 : en:Chapitre 18
x264 [info]: frame I:1416 Avg QP:16.33 size:144984
x264 [info]: frame P:40753 Avg QP:17.67 size: 89095
x264 [info]: frame B:179891 Avg QP:19.67 size: 42563
скриншот   скриншот   скриншот   скриншот   скриншот   скриншот   скриншот  


pb.wtf



Скачать Маленькие секреты через торрент http://i3.imageban.ru/out/2017/09/03/aa1566d308279f487c898da4504862d3.png Скачать, смотреть онлайн Маленькие секреты бесплантно в хорошем качестве Описание:История друзей, которые по традиции отправляются провести совместный летний отдых на мыс Ферре неподалеку от Бордо. Но когда они ... 10 10 2
Info! Золотая раздача, скачанное не засчитывается.
Торрент: Зарегистрирован [2017-09-03 13:35] · скачан: 42 раз
Статус: √ проверено
Размер: 12.08 GB
Как cкачать? Как скачать Маленькие секреты через торрент | UTorrent

28-11-2019 20:33  

Отключить всю рекламу на сайте

    Дорогой пользователь! Огромная просьба, поблагодарите релизера, оцените раздачу и оставьте свои комментарий, если Вы скачали Маленькие секреты через торрент бесплатно!
    Комментировать посты могут только пользователи прошедшие не сложную регистрацию
    Показать сообщения:    

    Маленькие секреты через торрент
    Скачать бесплатно Маленькие секреты
    Маленькие секреты скачать торрент
    Маленькие секреты смотреть онлайн
    Cкачать фильм Маленькие секреты бесплатно
    Маленькие секреты скачать торрент в хорошем качестве
    Маленькие секреты смотреть онлайн бесплатно в хорошем качестве


    Вы не можете начинать темы
    Вы не можете отвечать на сообщения
    Вы не можете редактировать свои сообщения
    Вы не можете удалять свои сообщения
    Вы не можете голосовать в опросах
    Вы не можете прикреплять файлы к сообщениям
    Вы можете скачивать файлы