2 сезон

iTunes

MVO

1

2 сезон

iTunes

iTunes

1 сезон

RePack

30

Ultimate

ВАЖНО

ИГРА 18+

pack

RePack

MK11
pack

Легкие деньги

RePack

jed

RePack

fifa19

RePack

RDR2

RePack

NEED FOR SPEED™ PAYBACK

4 сезон

9 сезон

Бесстыжие 9 сезон

Все сериалы

все сериалы на PB.wtf

RePack

FAR CRY 5

Anonymous, добрый вечер, мы не успеваем собрать деньги на оплату серверов за декабрь и январь, помогите нам пожалуйста в это трудное время. В качестве благодарности мы отключим Вам всю рекламу на сайте (укажите свой ник в строку Ваше имя)!

×
  
Magnet ссылка

2pac: Легенда / All Eyez on Me (Бенни Бум) [2017, драма, биография, музыка, BDRip-AVC] DUB [iTunes] pb.wtf

2pac: Легенда через торрент pb.wtf

Размер: 2.84 GB | Добавлен: 3 года 4 мес. назад | Торрент скачан:435 раз
Скачать  

04-09-2017 04:40 2pac: Легенда Скачать торрент  

2pac: Легенда / All Eyez on MeГод выпуска: 2017
Страна: США
Жанр: драма, биография, музыка
Продолжительность: 02:13:39
Перевод: Дубляж iTunes
Субтитры: Английские

Режиссер: Бенни Бум

rating

В ролях:

Деметриус Шипп мл., Данай Джекесай Гурира, Катерина Грэхэм, Хилл Харпер, Энни Илонзе, Лорен Кохэн, Джамал Вулард, Доминик Сантана, Кори Хардрикт, Клифтон Пауэлл, Джэми Гектор, Рэйвен Саймон Феррелл, Шанель Янг, Брэндон Сове, Джош Вентура

Описание:

Неизвестная, скрытая за газетными заголовками и вспышками фотоаппаратов история человека, ставшего рэп-легендой и погибшего в свои 25. Правда о том, как чернокожий выходец из гетто, участник криминальных разборок, неоднократно привлекавшийся к суду и развязавший смертельную войну рекорд-лейблов, становится настоящим голосом улиц и одним из самых влиятельных исполнителей в мировой рэп-культуре.

Качество: BDRip-AVC
Формат: MKV
Видео кодек: H.264
Аудио кодек: AC3

Видео: 1024x428 (16:9), 23,976 fps, x264 ~2075 kbps avg, 0.197 bit/pixel
Аудио#1: 48 kHz, AC3 Dolby Digital, 3/2 (L,C,R,l,r) + LFE ch, ~384.00 kbps avg | RUS (iTunes)
Аудио#2: 48 kHz, AC3 Dolby Digital, 3/2 (L,C,R,l,r) + LFE ch, ~448.00 kbps avg | ENG
скриншот   скриншот   скриншот   скриншот   скриншот  

Общее
Уникальный идентификатор : 247907106056831158444018903082895259841 (0xBA812C0183F1FEAFBDCF14838C51B8C1)
Полное имя : D:All.Eyez.on.Me.2017.BDRip(AVC).OlLanDGroup.mkv
Формат : Matroska
Версия формата : Version 2
Размер файла : 2,84 Гбайт
Продолжительность : 2 ч. 19 м.
Общий поток : 2908 Кбит/сек
Название фильма : All Eyez on Me (2017) #TorpedoUK#
Дата кодирования : UTC 2017-09-03 16:41:19
Программа кодирования : mkvmerge v7.8.0 ('River Man') 32bit built on Apr 3 2015 12:11:22
Библиотека кодирования : libebml v1.3.1 + libmatroska v1.4.2

Видео
Идентификатор : 1
Формат : AVC
Формат/Информация : Advanced Video Codec
Профиль формата : High@L4.1
Параметр CABAC формата : Да
Параметр ReFrames формата : 10 кадров
Идентификатор кодека : V_MPEG4/ISO/AVC
Продолжительность : 2 ч. 19 м.
Битрейт : 2075 Кбит/сек
Ширина : 1024 пикселя
Высота : 428 пикселей
Соотношение сторон : 2,40:1
Режим частоты кадров : Постоянный
Частота кадров : 23,976 (24000/1001) кадра/сек
Цветовое пространство : YUV
Субдискретизация насыщенности : 4:2:0
Битовая глубина : 8 бит
Тип развёртки : Прогрессивная
Бит/(Пиксели*Кадры) : 0.197
Размер потока : 1,97 Гбайт (69%)
Библиотека кодирования : x264 core 146 r2538 121396c
Настройки программы : cabac=1 / ref=10 / deblock=1:-3:-3 / analyse=0x3:0x133 / me=umh / subme=11 / psy=1 / psy_rd=1.00:0.07 / mixed_ref=1 / me_range=48 / chroma_me=1 / trellis=2 / 8x8dct=1 / cqm=0 / deadzone=21,11 / fast_pskip=0 / chroma_qp_offset=-3 / threads=6 / lookahead_threads=1 / sliced_threads=0 / nr=0 / decimate=0 / interlaced=0 / bluray_compat=0 / constrained_intra=0 / bframes=10 / b_pyramid=2 / b_adapt=2 / b_bias=0 / direct=3 / weightb=1 / open_gop=0 / weightp=2 / keyint=240 / keyint_min=23 / scenecut=40 / intra_refresh=0 / rc_lookahead=40 / rc=2pass / mbtree=0 / bitrate=2075 / ratetol=1.0 / qcomp=0.60 / qpmin=0 / qpmax=69 / qpstep=4 / cplxblur=20.0 / qblur=0.5 / vbv_maxrate=50000 / vbv_bufsize=62500 / nal_hrd=none / filler=0 / ip_ratio=1.40 / pb_ratio=1.30 / aq=1:1.00
Язык : English
Default : Да
Forced : Нет

Аудио #1
Идентификатор : 2
Формат : AC-3
Формат/Информация : Audio Coding 3
Расширение режима : CM (complete main)
Параметр Endianness формата : Big
Идентификатор кодека : A_AC3
Продолжительность : 2 ч. 19 м.
Вид битрейта : Постоянный
Битрейт : 384 Кбит/сек
Каналы : 6 каналов
Расположение каналов : Front: L C R, Side: L R, LFE
Частота : 48,0 КГц
Частота кадров : 31,250 кадров/сек (1536 spf)
Битовая глубина : 16 бит
Метод сжатия : С потерями
Размер потока : 384 Мбайт (13%)
Заголовок : iTunes
Язык : Russian
Default : Да
Forced : Нет

Аудио #2
Идентификатор : 3
Формат : AC-3
Формат/Информация : Audio Coding 3
Расширение режима : CM (complete main)
Параметр Endianness формата : Big
Идентификатор кодека : A_AC3
Продолжительность : 2 ч. 19 м.
Вид битрейта : Постоянный
Битрейт : 448 Кбит/сек
Каналы : 6 каналов
Расположение каналов : Front: L C R, Side: L R, LFE
Частота : 48,0 КГц
Частота кадров : 31,250 кадров/сек (1536 spf)
Битовая глубина : 16 бит
Метод сжатия : С потерями
Размер потока : 448 Мбайт (15%)
Заголовок : Original
Язык : English
Default : Нет
Forced : Нет

Текст
Идентификатор : 4
Формат : UTF-8
Идентификатор кодека : S_TEXT/UTF8
Идентификатор кодека/Информация : UTF-8 Plain Text
Заголовок : Full
Язык : English
Default : Нет
Forced : Нет

Меню
00:00:00.000 : en:00:00:00.000
00:08:11.241 : en:00:08:11.241
00:18:13.259 : en:00:18:13.259
00:26:49.900 : en:00:26:49.900
00:35:10.692 : en:00:35:10.692
00:44:50.104 : en:00:44:50.104
00:52:41.533 : en:00:52:41.533
01:01:27.934 : en:01:01:27.934
01:09:20.490 : en:01:09:20.490
01:19:04.657 : en:01:19:04.657
01:27:41.548 : en:01:27:41.548
01:35:07.702 : en:01:35:07.702
01:44:51.952 : en:01:44:51.952
01:52:30.994 : en:01:52:30.994
02:03:28.401 : en:02:03:28.401
02:14:29.061 : en:02:14:29.061

pb.wtf



Скачать 2pac: Легенда через торрент http://lostpix.com/img/2017-09/03/ax09cgtvyvxk7gofb92k690fz.jpg Скачать фильм 2pac: Легенда через торрент бесплантно в хорошем качестве Описание: Неизвестная, скрытая за газетными заголовками и вспышками фотоаппаратов история человека, ставшего рэп-легендой и погибшего в ... 9.2 10 10
Info! Золотая раздача, скачанное не засчитывается.
Торрент: Зарегистрирован [2017-09-04 04:40] · скачан: 435 раз
Статус: √ проверено
Размер: 2.84 GB
Как cкачать? Как скачать 2pac: Легенда через торрент | UTorrent

% Раздел Тема Автор DL S | L
Фильмы 2017 [DVDrip, WEB-DLRip, HDrip] (DUB, MVO) [ 1.44 GB ] 2pac: Легенда / All Eyez on Me [2017 биография музыка BDRip-AVC] - ExKinoRay Enigma2010 Скачать
1 | 0
Фильмы 2017 [DVDrip, WEB-DLRip, HDrip] (DUB, MVO) [ 2.28 GB ] 2pac: Легенда / All Eyez on Me [2017 биография музыка BDRip-AVC] От R.G.Generalfilm White Smoke Скачать
1 | 0
Фильмы (Blu-ray, BD-Remux, HDDVD) [ 24.12 GB ] 2Pac: Легенда / All Eyez on Me [2017 биография музыка BD Remux + MVO Синема УС] Бумер Скачать
1 | 0
Фильмы 2017 [DVDrip, WEB-DLRip, HDrip] (DUB, MVO) [ 1.46 GB ] 2pac: Легенда / All Eyez on Me [2017 биография музыка BDRip] - Twi7ter Скачать
1 | 0
Фильмы 2017 [DVDrip, WEB-DLRip, HDrip] (DUB, MVO) [ 2.12 GB ] 2pac: Легенда / All Eyez on Me [2017 биография музыка BDRip] - Twi7ter Скачать
1 | 0
Фильмы [HD 720p, 1080p] (Хороший звук DUB, MVO) [ 12.01 GB ] 2pac: Легенда / All Eyez on Me [2017 биография музыка BDRip 1080p] +MVO [Синема УС] bober100 Скачать
1 | 0
Фильмы 2017 [DVDrip, WEB-DLRip, HDrip] (DUB, MVO) [ 1.46 GB ] 2pac: Легенда / All Eyez on Me [2017 биография музыка WEB-DLRip] DUB [Локализованный видеоряд] bober100 Скачать
2 | 0

28-11-2019 20:33  

Отключить всю рекламу на сайте

04-09-2017 21:00 2pac: Легенда Скачать торрент  

Когда уже норм. размер?
Тупака нашли с собачьими глазами...pb.wtf



08-09-2017 12:25 2pac: Легенда Скачать торрент  

2рас не пид......с ))))), что за чушь???pb.wtf



    Дорогой пользователь! Огромная просьба, поблагодарите релизера, оцените раздачу и оставьте свои комментарий, если Вы скачали 2pac: Легенда через торрент бесплатно! Внесите свою лепту в развитие PiratBit!
    Комментировать посты могут только пользователи прошедшие не сложную регистрацию
    Показать сообщения:    

    2pac: Легенда через торрент
    Скачать бесплатно 2pac: Легенда
    2pac: Легенда скачать торрент
    2pac: Легенда смотреть онлайн
    Cкачать фильм 2pac: Легенда бесплатно
    2pac: Легенда скачать торрент в хорошем качестве
    2pac: Легенда смотреть онлайн бесплатно в хорошем качестве


    Вы не можете начинать темы
    Вы не можете отвечать на сообщения
    Вы не можете редактировать свои сообщения
    Вы не можете удалять свои сообщения
    Вы не можете голосовать в опросах
    Вы не можете прикреплять файлы к сообщениям
    Вы можете скачивать файлы