Ссылка на приватное зеркало нашего сайта всего за 1$. Внимание количество ограничено!!!

2 сезон

iTunes

1 сезон

1

iTunes

iTunes

iTunes

1 сезон

RePack

30

ИГРА 18+

pack

ВАЖНО

!!Акция!!

Alien_RageХит недели

RePack

MK11
pack

Забери бонус

RePack

jed

!!Акция!!

Alien_Rage

RePack

fifa19

RePack

Assassins Creed: Odyssey

RePack

NEED FOR SPEED™ PAYBACK

4 сезон

9 сезон

Бесстыжие 9 сезон

Все сериалы

все сериалы на PB.wtf

RePack

FAR CRY 5
  

Комиссарша / Серия 1-8 из 8 (Андрей Щербинин) [2017 г., Драма, военный, SATRip] pb.wtf

Комиссарша через торрент pb.wtf

Размер: 5.42 GB | Добавлен: 3 года 1 мес. назад | Торрент скачан:455 раз
Скачать  

04-09-2017 12:51 Комиссарша Скачать торрент  

Комиссарша / Серия 1-8 из 8
Год выпуска: 2017
Страна: Россия
Жанр: Драма, военный
Продолжительность: 8х~00:51:00
Субтитры: нет

Режиссер: Андрей Щербинин

В ролях: Ирина Пегова, Максим Емельянов, Олег Фомин, Алексей Шевченков, Александр Булатов, Иван Шибанов, Татьяна Колганова, Игорь Лепихин, Наталия Варфоломеева, Иван Рудаков, Вадим Сквирский, Наталья Высочанская, Сергей Беспалов, Егор Лесников, Геннадий Блинов, Игорь Гоппиков, Анна Цуканова-Котт, Анна Дулова, Алексей Байдаков, Анвар Либабов, Никита Барсуков, Анна Скиданова, Антон Чернов, Виталий Соболев, Андрей Благословенский, Павел Гончаров, Дмитрий Житков

Описание: Много лет назад Галина Семенова уехала из родного городка в Москву, оставив маленького сына Илью на воспитание матери. После окончания института девушка устроилась на работу в отделение милиции, а в 1941 году ушла на войну. Получив ранение, Галина через два года возвращается на службу в родной город: на освобожденных землях остро не хватает людей, которые бы навели там порядок. Приехав на место, она выясняет, что город терроризирует банда, в составе которой – ее повзрослевший сын.

Качество: SATRip
Формат: AVI
Видео кодек: XviD
Аудио кодек: MP3
Видео: 704x448, 25 fps, XviD build 50 ~1800 kbps
Аудио#1: 48 kHz, MPEG Layer 3, 2 ch, ~128.00 kbps
скриншот   скриншот   скриншот   скриншот  

General
Complete name : H:\релизы.торрентфайл\Комиссарша(2017)\Kommisarsha.01.SATRip.[www.riperam.org].avi
Format : AVI
Format/Info : Audio Video Interleave
File size : 698 MiB
Duration : 50mn 14s
Overall bit rate : 1 942 Kbps

Video
ID : 0
Format : MPEG-4 Visual
Format profile : Advanced Simple@L5
Format settings, BVOP : 2
Format settings, QPel : No
Format settings, GMC : No warppoints
Format settings, Matrix : Default (H.263)
Codec ID : XVID
Codec ID/Hint : XviD
Duration : 50mn 14s
Bit rate : 1 800 Kbps
Width : 704 pixels
Height : 448 pixels
Display aspect ratio : 1.571
Frame rate : 25.000 fps
Color space : YUV
Chroma subsampling : 4:2:0
Bit depth : 8 bits
Scan type : Progressive
Compression mode : Lossy
Bits/(Pixel*Frame) : 0.228
Stream size : 647 MiB (93%)
Writing library : XviD 1.2.1 (UTC 2008-12-04)

Audio
ID : 1
Format : MPEG Audio
Format version : Version 1
Format profile : Layer 3
Mode : Joint stereo
Mode extension : MS Stereo
Codec ID : 55
Codec ID/Hint : MP3
Duration : 50mn 14s
Bit rate mode : Constant
Bit rate : 128 Kbps
Channel(s) : 2 channels
Sampling rate : 48.0 KHz
Compression mode : Lossy
Stream size : 46.0 MiB (7%)
Alignment : Aligned on interleaves
Interleave, duration : 24 ms (0.60 video frame)
Writing library : LAME3.99r
Encoding settings : -m j -V 4 -q 9 -lowpass 17 -b 128

Внимание! Раздача ведётся путём добавления новых серий; при каждом добавлении создётся новый торрент. Чтобы начать докачку новой серии, пользователям необходимо сделать следующее:
  • Остановить скачивание,
  • Удалить старый торрент у себя из клиента (старые серии удалять не надо),
  • Скачать новый торрент и запустить его у себя в клиенте вместо старого, при этом указать клиенту путь в старую папку куда и должно происходить скачивание новых серий.
Ваш клиент при этом должен произвести хеширование (проверку) старой папки (если не производит сам - помогите ему сделать это), и будет докачивать только те серии которых у вас ещё нет. Старые серии при этом не удаляются, а продолжают раздаваться!

Eсли вы уже удалили старые серии, то предотвратить повторную закачку старых серий можно, отжав галочку в соответсвующих местах при запуске нового торрента. По возможности, желательно не удалять старые серии как можно дольше чтобы релизёр не столько продолжал раздавать старые серии, а смог сконцентрироваться на новых.
pb.wtf



Скачать Комиссарша через торрент http://pic1.kartinco.top/images/11/oixbs.jpg Скачать фильм Комиссарша через торрент бесплантно в хорошем качестве Описание: Много лет назад Галина Семенова уехала из родного городка в Москву, оставив маленького сына Илью на воспитание матери. После ... 9.2 10 30
Info! Золотая раздача, скачанное не засчитывается.
Торрент: Зарегистрирован [2017-09-07 13:12] · скачан: 455 раз
Статус: √ проверено
Размер: 5.42 GB
Как cкачать? Как скачать Комиссарша через торрент | qTorrent

% Раздел Тема Автор DL S | L
Наши сериалы [ 5.62 GB ] Комиссарша / Сезон: 1 / Серии: 1-8 из 8 [2017 Военный HDTVRip] bober100 Скачать
1 | 0
Наши сериалы [ 10.18 GB ] Комиссарша / Сезон: 1 / Серии: 1-8 из 8 [2017 Военный HDTVRip 720p] bober100 Скачать
1 | 0
Наши сериалы [ 18.81 GB ] Комиссарша / Сезон 1 / Серии 1-8 из 8 [2017 Военный WEB-DL 1080p] bober100 Скачать
1 | 0
Наши сериалы [ 5.07 GB ] Комиссарша / Серии: 1-8 из 8 [2017военный SATRip-AVC] aleksan55 Скачать
1 | 0


Последний раз редактировалось: oleg8 (2017-09-07 13:11), всего редактировалось 3 раз(а)

28-11-2019 20:33  

Отключить всю рекламу на сайте

04-09-2017 13:53 Комиссарша Скачать торрент  

Добавил 2 серию.pb.wtf



04-09-2017 14:48 Комиссарша Скачать торрент  

спасибо.забираем.начнем смотреть.pb.wtf



04-09-2017 14:52 Комиссарша Скачать торрент  

SASHA66 писал(а):

спасибо.забираем.начнем смотреть.

та нема за шо,я дождусь все 8 серий.pb.wtf



05-09-2017 13:47 Комиссарша Скачать торрент  

Добавил 3-4 серии.pb.wtf



05-09-2017 14:26 Комиссарша Скачать торрент  

oleg8 писал(а):

Добавил 3-4 серии.

оперативно!!pb.wtf



07-09-2017 13:13 Комиссарша Скачать торрент  

Добавил 7-8 серии.Сериал завершен.pb.wtf



09-09-2017 19:17 Комиссарша Скачать торрент  

ещё 1 высер первого каналаpb.wtf



10-09-2017 18:48 Комиссарша Скачать торрент  

Парни, что за бред, на любой вкладке спам про заработок?pb.wtf



01-11-2017 00:52 Комиссарша Скачать торрент  

Шесть серий отсмотрел на одном дыхании.
На просмотре 7 серии понял, что начинается полная дичь.
Восьмую серию не осилил и удалил к чертям собачьим... pb.wtf



    Дорогой пользователь! Огромная просьба, поблагодарите релизера, оцените раздачу и оставьте свои комментарий, если Вы скачали Комиссарша через торрент бесплатно! Внесите свою лепту в развитие PiratBit!
    Комментировать посты могут только пользователи прошедшие не сложную регистрацию
    Показать сообщения:    

    Комиссарша через торрент
    Скачать бесплатно Комиссарша
    Комиссарша скачать торрент
    Комиссарша смотреть онлайн
    Cкачать фильм Комиссарша бесплатно
    Комиссарша скачать торрент в хорошем качестве
    Комиссарша смотреть онлайн бесплатно в хорошем качестве


    Вы не можете начинать темы
    Вы не можете отвечать на сообщения
    Вы не можете редактировать свои сообщения
    Вы не можете удалять свои сообщения
    Вы не можете голосовать в опросах
    Вы не можете прикреплять файлы к сообщениям
    Вы можете скачивать файлы