Ссылка на приватное зеркало нашего сайта всего за 1$. Внимание количество ограничено!!!

2 сезон

iTunes

1 сезон

1

iTunes

iTunes

iTunes

1 сезон

RePack

30

ИГРА 18+

pack

ВАЖНО

!!Акция!!

Alien_RageХит недели

RePack

MK11
pack

Забери бонус

RePack

jed

!!Акция!!

Alien_Rage

RePack

fifa19

RePack

Assassins Creed: Odyssey

RePack

NEED FOR SPEED™ PAYBACK

4 сезон

9 сезон

Бесстыжие 9 сезон

Все сериалы

все сериалы на PB.wtf

RePack

FAR CRY 5
  

Подводная эра / Deep [2017 г., мультфильм, комедия, семейный, WEB-DLRip-AVC, Дубляж] iTunes - ExKinoRay pb.wtf

Подводная эра через торрент pb.wtf

Размер: 2 GB | Добавлен: 3 года 1 мес. назад | Торрент скачан:612 раз
Скачать  

04-09-2017 20:14 Подводная эра Скачать торрент  

Информация о фильме
Название: Подводная эра
Оригинальное название: Deep
Год выпуска: 2017
Жанр: Мультфильм, комедия, приключения, семейный, полнометражный
Страна: США, Испания, Бельгия
Студия: Grid Animation, Kraken Films, The
Продолжительность: 01:32:38
Перевод: Дублированный (iTunes)
Режиссер: Джулио Сото Гарпид
В ролях: Фил ЛаМарр, Джесс Харнелл, Джефф Беннетт, Дэйв Фенной, Боб Берген, Уильям Салиерс, Анна Вочино, Терри Дуглас, Джо Охман

Описание:
Человеку всегда хочется заглянуть в недосягаемые окрестности Вселенной. То он отправляет свои корабли в Космос, то в самое сердце Мирового океана. Вот и в новом мультфильме «Подводная эра» события будут разворачиваться под водой. Создатели мультика предположили, что наступило время, когда всю планету покроет вода и на планете останутся только морские обитатели. Трудно конечно же представить себе Землю без человека, но Хулио Сото со своей командой, рискнули. Главным героем фильма является один осьминожек по имени Дим, он относится к виду Гримпотевтис, которые могут жить очень-очень глубоко. Наш герой очень любознателен и обожает вместе со своими друзьями исследовать окрестности. Жизнь друзей беззаботная, интересная и веселая. Но однажды подводой произошла катастрофа и дом Дипа бал разрушен. Как оказалось, что и дома его друзей тоже не уцелели. Теперь им жить негде, поэтому все вместе они решаются искать себе новое жилище. Во время поисков, героям пришлось преодолеть достаточно непростой и долгий путь. На их пути встречались разрушенные мегаполисы, непроходимые морские джунгли. Им приходилось бороться с врагам, которые оказались на их пути. Однако их оптимизм и жизнерадостное отношение к жизни, позволило побороть все препятствия. Мультик «Подводная эра» будет интересен как для детей, так и взрослых.


rating

Файл
Формат: MKV
Качество: WEB-DLRip-AVC (AVC)
Видео: MPEG-4 AVC, 1024x550 (1.85:1), ~ 1943 kbps avg, 23.976 FPS, 0.144 bit/pixel
Аудио 1: AC-3, 48.0 KHz, 5.1 ch, 384 Kbps, CBR (Russian)
Аудио 2: AC-3, 48.0 KHz, 5.1 ch, 384 Kbps, CBR (Ukrainian)
Аудио 3: AC-3, 48.0 KHz, 5.1 ch, 384 Kbps, CBR (ENG)

Без какой-либо рекламы
General
Unique ID : 195092541785974037425112626718250184255 (0x92C574F1D7A926ED8A2022F095A92E3F)
Complete name : D:\Deep.2017.D.WEB-DLRip.AVC.ExKinoRay.mkv
Format : Matroska
Format version : Version 2
File size : 2.00 GiB
Duration : 1 h 32 min
Overall bit rate : 3 096 kb/s
Movie name : Deep 2017 from ExKinoRay
Encoded date : UTC 2017-09-04 19:23:25
Writing application : mkvmerge v5.6.0 ('Kenya Kane') built on May 27 2012 16:44:04
Writing library : libebml v1.2.3 + libmatroska v1.3.0
Cover : Yes
Attachments : cover_land.jpg / small_cover.jpg / small_cover_land.jpg / cover.jpg

Video
ID : 1
Format : AVC
Format/Info : Advanced Video Codec
Format profile : High@L4.1
Format settings, CABAC : Yes
Format settings, ReFrames : 10 frames
Codec ID : V_MPEG4/ISO/AVC
Duration : 1 h 32 min
Bit rate : 1 943 kb/s
Width : 1 024 pixels
Height : 550 pixels
Display aspect ratio : 1.85:1
Frame rate mode : Constant
Frame rate : 23.976 (23976/1000) FPS
Color space : YUV
Chroma subsampling : 4:2:0
Bit depth : 8 bits
Scan type : Progressive
Bits/(Pixel*Frame) : 0.144
Stream size : 1.22 GiB (61%)
Title : Enigma
Writing library : x264 core 144 r2525 40bb568
Encoding settings : cabac=1 / ref=10 / deblock=1:-2:-2 / analyse=0x3:0x113 / me=umh / subme=10 / psy=1 / psy_rd=1.00:0.05 / mixed_ref=1 / me_range=32 / chroma_me=1 / trellis=2 / 8x8dct=1 / cqm=0 / deadzone=21,11 / fast_pskip=1 / chroma_qp_offset=-3 / threads=12 / lookahead_threads=3 / sliced_threads=0 / nr=0 / decimate=0 / interlaced=0 / bluray_compat=0 / constrained_intra=0 / bframes=10 / b_pyramid=2 / b_adapt=2 / b_bias=0 / direct=3 / weightb=1 / open_gop=0 / weightp=2 / keyint=240 / keyint_min=23 / scenecut=40 / intra_refresh=0 / rc_lookahead=40 / rc=2pass / mbtree=0 / bitrate=1943 / ratetol=1.0 / qcomp=0.60 / qpmin=0 / qpmax=51 / qpstep=4 / cplxblur=20.0 / qblur=0.5 / vbv_maxrate=50000 / vbv_bufsize=62500 / nal_hrd=none / filler=0 / ip_ratio=1.40 / pb_ratio=1.30 / aq=1:1.00
Language : English
Default : Yes
Forced : No
Color range : Limited
Color primaries : BT.709
Transfer characteristics : BT.709
Matrix coefficients : BT.709

Audio #1
ID : 2
Format : AC-3
Format/Info : Audio Coding 3
Mode extension : CM (complete main)
Format settings, Endianness : Big
Codec ID : A_AC3
Duration : 1 h 32 min
Bit rate mode : Constant
Bit rate : 384 kb/s
Channel(s) : 6 channels
Channel positions : Front: L C R, Side: L R, LFE
Sampling rate : 48.0 kHz
Frame rate : 31.250 FPS (1536 spf)
Compression mode : Lossy
Stream size : 254 MiB (12%)
Title : iTunes
Language : Russian
Default : Yes
Forced : No

Audio #2
ID : 3
Format : AC-3
Format/Info : Audio Coding 3
Mode extension : CM (complete main)
Format settings, Endianness : Big
Codec ID : A_AC3
Duration : 1 h 32 min
Bit rate mode : Constant
Bit rate : 384 kb/s
Channel(s) : 6 channels
Channel positions : Front: L C R, Side: L R, LFE
Sampling rate : 48.0 kHz
Frame rate : 31.250 FPS (1536 spf)
Compression mode : Lossy
Stream size : 254 MiB (12%)
Title : Dub
Language : Ukrainian
Default : No
Forced : No

Audio #3
ID : 4
Format : AC-3
Format/Info : Audio Coding 3
Mode extension : CM (complete main)
Format settings, Endianness : Big
Codec ID : A_AC3
Duration : 1 h 32 min
Bit rate mode : Constant
Bit rate : 384 kb/s
Channel(s) : 6 channels
Channel positions : Front: L C R, Side: L R, LFE
Sampling rate : 48.0 kHz
Frame rate : 31.250 FPS (1536 spf)
Compression mode : Lossy
Stream size : 254 MiB (12%)
Language : English
Default : No
Forced : No

Menu
00:00:00.000 : en:1
00:02:02.000 : en:2
00:11:58.000 : en:3
00:20:08.000 : en:4
00:28:34.000 : en:5
00:38:03.000 : en:6
00:47:03.000 : en:7
00:57:09.000 : en:8
01:05:55.000 : en:9
01:15:23.000 : en:10
01:27:22.000 : en:11
Релиз от:

Автор релиза: pb.wtf



Скачать Подводная эра через торрент http://s011.radikal.ru/i318/1709/57/c9c2d76bc31e.jpg Скачать фильм Подводная эра через торрент бесплантно в хорошем качестве Описание: Человеку всегда хочется заглянуть в недосягаемые окрестности Вселенной. То он отправляет свои корабли в Космос, то в самое ... 8.9 10 10
Info! Золотая раздача, скачанное не засчитывается.
Торрент: Зарегистрирован [2017-09-04 20:14] · скачан: 612 раз
Статус: √ проверено
Размер: 2 GB
Как cкачать? Как скачать Подводная эра через торрент | qTorrent

28-11-2019 20:33  

Отключить всю рекламу на сайте

    Дорогой пользователь! Огромная просьба, поблагодарите релизера, оцените раздачу и оставьте свои комментарий, если Вы скачали Подводная эра через торрент бесплатно! Внесите свою лепту в развитие PiratBit!
    Комментировать посты могут только пользователи прошедшие не сложную регистрацию
    Показать сообщения:    

    Подводная эра через торрент
    Скачать бесплатно Подводная эра
    Подводная эра скачать торрент
    Подводная эра смотреть онлайн
    Cкачать фильм Подводная эра бесплатно
    Подводная эра скачать торрент в хорошем качестве
    Подводная эра смотреть онлайн бесплатно в хорошем качестве


    Вы не можете начинать темы
    Вы не можете отвечать на сообщения
    Вы не можете редактировать свои сообщения
    Вы не можете удалять свои сообщения
    Вы не можете голосовать в опросах
    Вы не можете прикреплять файлы к сообщениям
    Вы можете скачивать файлы