Anonymous, добрый вечер, присоединяйтесь к нам в Telegram!, здесь всегда актуальный адрес сайта, оперативная поддержка и многое другое!

>

5.6

iTunes

7.4

MVO

5.7

MVO

1

7.7

1 сезон

6.8

iTunes

7.3

1 сезон

13

6.7

1 сезон

8.3

RePack

30

ULTIMATE

pack

9.9

Лицензия

ВАЖНО

ИГРА 18+

pack

7.3

RePack

MK11

7.7

RePack

jed

7.8

RePack

fifa19

8.5

RePack

RDR2

RePack

NEED FOR SPEED™ PAYBACK

4 сезон

9 сезон

Бесстыжие 9 сезон

Все сериалы

все сериалы на PB.wtf

RePack

FAR CRY 5

Anonymous, добрый вечер, мы катастрофически не успеваем собрать деньги на оплату серверов, помогите нам пожалуйста 5,10,15р., для нас важна любая помощь . В качестве благодарности мы отключим Вам всю рекламу на сайте (укажите свой ник в строку Ваше имя)!

×
  
Magnet ссылка

Ольга / Сезон: 2 / Серии 1-20 из 20 (Алексей Нужный, Игорь Волошин) [2017 г., комедия, WEB-DL 720p] pb.wtf

Ольга через торрент pb.wtf

Размер: 11.11 GB | Добавлен: 4 года назад | Торрент скачан:528 раз
Смотреть онлайн Ольга | Скачать    Ребята, помогите собрать деньги на оплату серверов!!!

04-09-2017 23:45 Ольга Скачать торрент  

Ольга
  • Год выпуска: 2017
  • Страна: Россия
  • Жанр: комедия
  • Продолжительность: ~ 00:26:00 (Серия)
  • Перевод: Не требуется
  • Режиссер: Алексей Нужный, Игорь Волошин


  • В ролях:
    Яна Троянова, Василий Кортуков, Алина Алексеева, Мухаммед Абу-Ризик, Алина Алексеева (II), Василий Кортуков, Максим Костромыкин, Филипп Ершов, Александр Шам, Светлана Костюкова, Ирина Цывина, Сергей Гусенков



  • Главная героиня воспитывает двух детей от разных браков, заботится об отце-алкоголике и пытается наладить личную жизнь. Старшая дочь Анька учится в ПТУ, думает, что она единственный адекватный член семьи и в её жизни все будет по-другому, младший сын Тимофей, чей отец вернулся к первой семье в Азербайджан, считает, что он уже мужчина, хотя ему всего лишь 11 лет, отец Ольги, бывший футболист, крепко выпивает и постоянно врет, а сестра Ленка пытается жить за счет мужчин, в основном — женатых. Вечно спасая родственников от неприятностей, Ольга живет чужой жизнью и редко думает о себе — до тех пор, пока в нее не влюбляется молодой и положительный водитель газели «Ритуал» Гриша.

  • Качество: WEB-DL 720p
  • Формат: : MKV
  • Видео кодек: AVC
  • Аудио кодек: AC-3

  • Видео: 3470 Кбит/сек, 1280*720 (16:9), в 25,000 кадров/сек, AVC
  • Аудио №1: 192 Кбит/сек, 44,1 КГц, 16 бит, 2 канала, AC-3
  • Релиз от: Files-x
    Общее
    Уникальный идентификатор : 189544173942415786983763833036155568724 (0x8E98E14A2B591E0335DF8429AAFEC254)
    Полное имя : F:\Olga.2017.WEB-DL.720.Files-x\02.Olga.2017.WEB-DL.720.Files-x.mkv
    Формат : Matroska
    Версия формата : Version 4 / Version 2
    Размер файла : 660 Мбайт
    Продолжительность : 24 м. 42 с.
    Общий поток : 3736 Кбит/сек
    Программа кодирования : Lavf56.25.101
    Библиотека кодирования : Lavf56.25.101

    Видео
    Идентификатор : 1
    Формат : AVC
    Формат/Информация : Advanced Video Codec
    Профиль формата : High@L3.1
    Параметр CABAC формата : Да
    Параметр RefFrames формата : 1 кадр
    Параметр GOP формата : M=1, N=12
    Идентификатор кодека : V_MPEG4/ISO/AVC
    Продолжительность : 24 м. 42 с.
    Битрейт : 3470 Кбит/сек
    Ширина : 1280 пикселей
    Высота : 720 пикселей
    Соотношение сторон : 16:9
    Режим частоты кадров : Постоянный
    Частота кадров : 25,000 кадров/сек
    Стандарт вещания : Component
    Цветовое пространство : YUV
    Субдискретизация насыщенности : 4:2:0
    Битовая глубина : 8 бит
    Тип развёртки : Прогрессивная
    Бит/(Пиксели*Кадры) : 0.151
    Размер потока : 613 Мбайт (93%)
    Default : Да
    Forced : Нет
    Цветовой диапазон : Limited

    Аудио
    Идентификатор : 2
    Формат : AC-3
    Формат/Информация : Audio Coding 3
    Параметр Endianness формата : Big
    Идентификатор кодека : A_AC3
    Продолжительность : 24 м. 42 с.
    Вид битрейта : Постоянный
    Битрейт : 192 Кбит/сек
    Каналы : 2 канала
    Расположение каналов : Front: L R
    Частота : 44,1 КГц
    Частота кадров : 28,711 кадров/сек (1536 SPF)
    Битовая глубина : 16 бит
    Метод сжатия : С потерями
    Размер потока : 33,9 Мбайт (5%)
    ServiceKind/String : Complete Main
    Default : Да
    Forced : Нет
    Скриншоты:
    скриншот   скриншот   скриншот   скриншот   скриншот   скриншот   скриншот  
    скриншот  

    Раздача ведётся путём добавления новых серий. Добавлена 20 серия (05.10.2017).Просьба перекачать торрент файл.

    pb.wtf



  • Скачать Ольга через торрент https://st.kp.yandex.net/images/film_iphone/iphone360_940680.jpg Скачать, смотреть онлайн Ольга бесплантно в хорошем качестве qw.png Главная героиня воспитывает двух детей от разных браков, заботится об отце-алкоголике и пытается наладить личную жизнь. Старшая ... 9.8 10 48
    Info! Золотая раздача, скачанное не засчитывается.
    Торрент: Зарегистрирован [2017-10-05 09:18] · скачан: 528 раз
    Статус: √ проверено
    Размер: 11.11 GB
    Как cкачать? Как скачать Ольга через торрент | UTorrent

    % Раздел Тема Автор DL S | L
    Наши сериалы [ 5.2 GB ] А у нас во дворе / Сезон-2 / Серии: 1-8 из 8 [2019 SATRip-AVC] aleksan55 Скачать
    1 | 0
    Наши сериалы [ 10.73 GB ] А у нас во дворе / Сезон: 2 / Серии: 1-8 из 8 [2019 HDTVRip 720p] oleg8 Скачать
    1 | 0
    TNT serials [ 5.66 GB ] Ольга / Сезон: 2 / Серии 1-20 из 20 [2017 HDTVRip] + GEKADOL Скачать
    1 | 0
    TNT serials [ 21.24 GB ] Ольга / Сезон: 2 / Серии 1-19 из 19 + Ольга за кадром фильм о сериале [2017 HDTV 1080P] От Generalfilm White Smoke Скачать
    1 | 0
    TNT serials [ 5.88 GB ] Ольга / Сезон: 2 / Серии 1-20 из 20 [2017 WEB-DLRip] GEKADOL Скачать
    2 | 0
    Наши сериалы [ 1.46 GB ] Парфюмерша / 2 сезон / 1-4 серии из 4 [2017 WEB-DLRip] bober100 Скачать
    1 | 0


    Последний раз редактировалось: GEKADOL (2017-10-05 11:30), всего редактировалось 16 раз(а)

    28-11-2019 20:33  

    Отключить всю рекламу на сайте

    15-09-2017 14:31 Ольга Скачать торрент  

    скиньте новые серииpb.wtf



    21-09-2017 18:47 Ольга Скачать торрент  

    норм сериал, весёленький, релизеру спасибо pb.wtf



    22-09-2017 01:01 Ольга Скачать торрент  

    w.a.s.p. писал(а):

    норм сериал, весёленький, релизеру спасибо

    pb.wtf



    05-10-2017 10:42 Ольга Скачать торрент  

    Спасибо! Авторы сериала красавцы, мне понравилось. Будем ждать 3-й сезон.pb.wtf



      Дорогой пользователь! Огромная просьба, поблагодарите релизера, оцените раздачу и оставьте свои комментарий, если Вы скачали Ольга через торрент бесплатно!
      Комментировать посты могут только пользователи прошедшие не сложную регистрацию
      Показать сообщения:    

      Ольга через торрент
      Скачать бесплатно Ольга
      Ольга скачать торрент
      Ольга смотреть онлайн
      Cкачать фильм Ольга бесплатно
      Ольга скачать торрент в хорошем качестве
      Ольга смотреть онлайн бесплатно в хорошем качестве


      Вы не можете начинать темы
      Вы не можете отвечать на сообщения
      Вы не можете редактировать свои сообщения
      Вы не можете удалять свои сообщения
      Вы не можете голосовать в опросах
      Вы не можете прикреплять файлы к сообщениям
      Вы можете скачивать файлы