Ссылка на приватное зеркало нашего сайта всего за 1$. Внимание количество ограничено!!!

2 сезон

iTunes

1 сезон

1

iTunes

iTunes

iTunes

1 сезон

RePack

30

ИГРА 18+

pack

ВАЖНО

!!Акция!!

Alien_RageХит недели

RePack

MK11
pack

Забери бонус

RePack

jed

!!Акция!!

Alien_Rage

RePack

fifa19

RePack

Assassins Creed: Odyssey

RePack

NEED FOR SPEED™ PAYBACK

4 сезон

9 сезон

Бесстыжие 9 сезон

Все сериалы

все сериалы на PB.wtf

RePack

FAR CRY 5
  

Изгоняющий дьявола: Начало / Exorcist: The Beginning (Ренни Харлин) [2004, ужасы, триллер, детектив, BDRip 1080p by msltel] 2 x MVO pb.wtf

Изгоняющий дьявола: Начало через торрент pb.wtf

Размер: 10.66 GB | Добавлен: 3 года 1 мес. назад | Торрент скачан:97 раз
Скачать  

05-09-2017 05:36 Изгоняющий дьявола: Начало Скачать торрент  

Название: Изгоняющий дьявола: Начало
Оригинальное название: Exorcist: The Beginning
Год выпуска: 2004
Страна: США
Жанр: ужасы, триллер, детектив
Продолжительность: 01:53:35
Перевод: профессиональный многоголосый

Режиссер: Ренни Харлин
В ролях: Стеллан Скарсгард, Изабелла Скорупко, Джеймс Д`Арси, Реми Суини, Джулиан Уэдэм, Эндрю Френч, Ральф Браун, Бен Кросс, Дэвид Брэдли (I), Алан Форд, Энтони Камерлинг, Эдди Осей, Исраель Адурамо, Патрик О’Кейн, Джеймс Беллами, Сесилия Амати, Матти Ристинен, Лидия Рэй, Джеймс Папарелла, Сильвио Хименез Эрнандез, Йеми Гудман Аджибаде, Мишель Лерой, Джон Сесай, Сайох Лахай, Алессандро Казула, Роберто Пурвис, Руперт Дегас

О фильме: После Второй мировой войны отец Меррин, отягощённый воспоминаниями об ужасах войны и усомнившийся в своем призвании, решил сложить сан и покинуть Европу. Вспомнив о своем дипломе археолога, Меррин присоединился к экспедиции, занимающейся раскопками в отдалённом районе Африки. Экспедиция обнаруживает прекрасную церковь в византийском стиле, погребённую под землёй в тот самый день, когда она была построена. Под церковью Меррин находит ещё более древний склеп, оказавшийся обителью Князя тьмы, столетия дожидавшегося возможности вырваться на волю...



Качество: BDRip 1080p
Формат: MKV
Видео: MPEG-4 AVC, 9961 Кбит/с, 1920x816, 23.976 кадр/с
Аудио 1: русский, DTS, 1509 kbps, 6 ch, 48 kHz [профессиональный многоголосый, R5]
Аудио 2: русский, AC3, 448 kbps, 6 ch, 48 kHz [профессиональный многоголосый, Tycoon]
Аудио 3: английский, DTS, 1509 kbps, 6 ch, 48 kHz [оригинал]
Субтитры 1: русские
Субтитры 2: английские
Имеются неименованные главы/чаптеры.
Общее
Уникальный идентификатор : 254905160282546187909865485247767416460 (0xBFC4F2B7C6A441B989A32E3D3E788E8C)
Полное имя : D:\Video\Изгоняющий дьявола.2004.BDRip.1080p by msltel.mkv
Формат : Matroska
Версия формата : Version 4 / Version 2
Размер файла : 10,7 Гбайт
Продолжительность : 1 ч. 53 м.
Общий поток : 13,4 Мбит/сек
Название фильма : Rip by msltel
Дата кодирования : UTC 2017-09-05 02:04:40
Программа кодирования : mkvmerge v8.2.0 ('World of Adventure') 64bit
Библиотека кодирования : libebml v1.3.1 + libmatroska v1.4.2

Видео
Идентификатор : 1
Формат : AVC
Формат/Информация : Advanced Video Codec
Профиль формата : High@L4.1
Параметр CABAC формата : Да
Параметр RefFrames формата : 4 кадра
Идентификатор кодека : V_MPEG4/ISO/AVC
Продолжительность : 1 ч. 53 м.
Битрейт : 9961 Кбит/сек
Ширина : 1920 пикселей
Высота : 816 пикселей
Соотношение сторон : 2,35:1
Режим частоты кадров : Постоянный
Частота кадров : 23,976 (24000/1001) кадра/сек
Цветовое пространство : YUV
Субдискретизация насыщенности : 4:2:0
Битовая глубина : 8 бит
Тип развёртки : Прогрессивная
Бит/(Пиксели*Кадры) : 0.265
Размер потока : 7,90 Гбайт (74%)
Библиотека кодирования : x264 core 146 r2538 121396c
Настройки программы : cabac=1 / ref=4 / deblock=1:-3:-2 / analyse=0x3:0x113 / me=umh / subme=11 / psy=1 / psy_rd=1.00:0.15 / mixed_ref=1 / me_range=32 / chroma_me=1 / trellis=2 / 8x8dct=1 / cqm=0 / deadzone=21,11 / fast_pskip=0 / chroma_qp_offset=-3 / threads=6 / lookahead_threads=1 / sliced_threads=0 / nr=0 / decimate=1 / interlaced=0 / bluray_compat=0 / constrained_intra=0 / bframes=8 / b_pyramid=2 / b_adapt=2 / b_bias=0 / direct=1 / weightb=1 / open_gop=0 / weightp=2 / keyint=230 / keyint_min=23 / scenecut=40 / intra_refresh=0 / rc_lookahead=40 / rc=crf / mbtree=0 / crf=17.8 / qcomp=0.60 / qpmin=0 / qpmax=69 / qpstep=4 / vbv_maxrate=62500 / vbv_bufsize=78125 / crf_max=0.0 / nal_hrd=none / filler=0 / ip_ratio=1.40 / pb_ratio=1.30 / aq=1:1.00
Язык : English
Default : Да
Forced : Нет

Аудио #1
Идентификатор : 2
Формат : DTS
Формат/Информация : Digital Theater Systems
Режим : 16
Параметр Endianness формата : Big
Идентификатор кодека : A_DTS
Продолжительность : 1 ч. 53 м.
Вид битрейта : Постоянный
Битрейт : 1509 Кбит/сек
Каналы : 6 каналов
Расположение каналов : Front: L C R, Side: L R, LFE
Частота : 48,0 КГц
Частота кадров : 93,750 кадра/сек (512 SPF)
Битовая глубина : 24 бит
Метод сжатия : С потерями
Размер потока : 1,20 Гбайт (11%)
Заголовок : MVO,R5
Язык : Russian
Default : Да
Forced : Нет

Аудио #2
Идентификатор : 3
Формат : AC-3
Формат/Информация : Audio Coding 3
Параметр Endianness формата : Big
Идентификатор кодека : A_AC3
Продолжительность : 1 ч. 53 м.
Вид битрейта : Постоянный
Битрейт : 448 Кбит/сек
Каналы : 6 каналов
Расположение каналов : Front: L C R, Side: L R, LFE
Частота : 48,0 КГц
Частота кадров : 31,250 кадров/сек (1536 SPF)
Битовая глубина : 16 бит
Метод сжатия : С потерями
Размер потока : 364 Мбайт (3%)
Заголовок : MVO,Tycoon
Язык : Russian
ServiceKind/String : Complete Main
Default : Нет
Forced : Нет

Аудио #3
Идентификатор : 4
Формат : DTS
Формат/Информация : Digital Theater Systems
Режим : 16
Параметр Endianness формата : Big
Идентификатор кодека : A_DTS
Продолжительность : 1 ч. 53 м.
Вид битрейта : Постоянный
Битрейт : 1509 Кбит/сек
Каналы : 6 каналов
Расположение каналов : Front: L C R, Side: L R, LFE
Частота : 48,0 КГц
Частота кадров : 93,750 кадра/сек (512 SPF)
Битовая глубина : 24 бит
Метод сжатия : С потерями
Размер потока : 1,20 Гбайт (11%)
Заголовок : original
Язык : English
Default : Нет
Forced : Нет

Текст #1
Идентификатор : 5
Формат : UTF-8
Идентификатор кодека : S_TEXT/UTF8
Идентификатор кодека/Информация : UTF-8 Plain Text
Продолжительность : 1 ч. 42 м.
Битрейт : 39 бит/сек
ElementCount : 573
Размер потока : 29,9 Кбайт (0%)
Заголовок : русские
Язык : Russian
Default : Нет
Forced : Нет

Текст #2
Идентификатор : 6
Формат : UTF-8
Идентификатор кодека : S_TEXT/UTF8
Идентификатор кодека/Информация : UTF-8 Plain Text
Продолжительность : 1 ч. 52 м.
Битрейт : 28 бит/сек
ElementCount : 789
Размер потока : 23,1 Кбайт (0%)
Заголовок : английские
Язык : English
Default : Нет
Forced : Нет

Меню
00:00:00.000 : :Chapter 01
00:03:24.037 : :Chapter 02
00:09:08.047 : :Chapter 03
00:13:33.103 : :Chapter 04
00:18:03.832 : :Chapter 05
00:23:12.432 : :Chapter 06
00:27:01.703 : :Chapter 07
00:29:35.690 : :Chapter 08
00:32:28.696 : :Chapter 09
00:37:18.110 : :Chapter 10
00:40:29.301 : :Chapter 11
00:44:59.196 : :Chapter 12
00:49:24.294 : :Chapter 13
00:51:46.269 : :Chapter 14
00:54:40.986 : :Chapter 15
00:59:30.525 : :Chapter 16
01:03:41.526 : :Chapter 17
01:08:21.555 : :Chapter 18
01:10:37.483 : :Chapter 19
01:13:42.709 : :Chapter 20
01:16:33.380 : :Chapter 21
01:18:55.439 : :Chapter 22
01:24:50.335 : :Chapter 23
01:27:34.290 : :Chapter 24
01:31:57.637 : :Chapter 25
01:34:26.535 : :Chapter 26
01:38:27.026 : :Chapter 27
01:40:56.300 : :Chapter 28
01:45:07.551 : :Chapter 29
01:46:18.372 : :Chapter 30
01:53:34.474 : :Chapter 31
pb.wtf



Скачать Изгоняющий дьявола: Начало через торрент http://s018.radikal.ru/i519/1709/69/40b96a2341d3.jpg Скачать фильм Изгоняющий дьявола: Начало через торрент бесплантно в хорошем качестве О фильме: После Второй мировой войны отец Меррин, отягощённый воспоминаниями об ужасах войны и усомнившийся в своем призвании, решил ... 8 10 7
Info! Серебряная раздача, засчитывается только 50% скачанного.
Торрент: Зарегистрирован [2017-09-05 05:36] · скачан: 97 раз
Статус: √ проверено
Размер: 10.66 GB
Как cкачать? Как скачать Изгоняющий дьявола: Начало через торрент | qTorrent

% Раздел Тема Автор DL S | L
Фильмы [HD 720p, 1080p] (Хороший звук DUB, MVO) [ 4.15 GB ] Изгоняющий дьявола: Начало / Exorcist: The Beginning [2004 BDRip 720p by msltel] 2 x MVO msltel Скачать
1 | 0

28-11-2019 20:33  

Отключить всю рекламу на сайте

    Дорогой пользователь! Огромная просьба, поблагодарите релизера, оцените раздачу и оставьте свои комментарий, если Вы скачали Изгоняющий дьявола: Начало через торрент бесплатно! Внесите свою лепту в развитие PiratBit!
    Комментировать посты могут только пользователи прошедшие не сложную регистрацию
    Показать сообщения:    

    Изгоняющий дьявола: Начало через торрент
    Скачать бесплатно Изгоняющий дьявола: Начало
    Изгоняющий дьявола: Начало скачать торрент
    Изгоняющий дьявола: Начало смотреть онлайн
    Cкачать фильм Изгоняющий дьявола: Начало бесплатно
    Изгоняющий дьявола: Начало скачать торрент в хорошем качестве
    Изгоняющий дьявола: Начало смотреть онлайн бесплатно в хорошем качестве


    Вы не можете начинать темы
    Вы не можете отвечать на сообщения
    Вы не можете редактировать свои сообщения
    Вы не можете удалять свои сообщения
    Вы не можете голосовать в опросах
    Вы не можете прикреплять файлы к сообщениям
    Вы можете скачивать файлы