новый адрес
Мега распродажа FORZA HORIZON 4 ULTIMATE+ВСЕ DLC+ОНЛАЙН всего за 499р. 349 руб. (супер цена). Внимание количество ограничено!!!

iTunes

1+1

iTunes

мы

iTunes

1

iTunes

Чернобыль

iTunes

Ральф против интернета

Лицензия

ПШазам

Лицензия

Игра престолов

Лицензия

30
pack

ВАЖНО

!!Акция!!

Alien_RageХит недели

RePack

Resident Evil 21

ИГРА 18+

pack

RePack

Metro:Exodus

!!Акция!!

Alien_Rage

RePack

fifa19

RePack

Assassins Creed: Odyssey

RePack

NEED FOR SPEED™ PAYBACK

3 сезон

9 сезон

Бесстыжие 9 сезон

Все сериалы

все сериалы на PB.wtf

RePack

FAR CRY 5
Ребята, катастрофически не хватает 1900р. для оплаты серверов за Октябрь (всвязи с блокировками трафик упал в 3 раза), 1-2р., выручайте.
  

Мамлюк (Давид Рондели) [1958, СССР, боевик, мелодрама, приключения, военный, DVDRip от AVP Studio] pb.wtf

Мамлюк через торрент pb.wtf

Размер: 745 MB | Добавлен: 2 года 2 мес. назад | Торрент скачан:19 раз
Скачать  

05-09-2017 09:00 Мамлюк Скачать торрент  

Мамлюк
Страна: СССР
Производство: Грузия-фильм

Жанр: боевик, мелодрама, приключения, военный
Год выпуска: 1958
Продолжительность: 01:34:29

Перевод: Не требуется
Cубтитры: нет
Оригинальная аудиодорожка: русский

Режиссер: Давид Рондели

В ролях:
Дато Данелия, Отар Коберидзе, В. Джоджуа, Манана Лондаридзе, Акакий Хорава, Лия Элиава, Георгий Шавгулидзе, Дудухана Церодзе, Михаил Вашадзе, Эдишер Магалашвили, Бухути Закариадзе, Верико Анджапаридзе, Зураб Лаперадзе, Шакро Гомелаури, Григол Костава, Гурам Сагарадзе, Тариэль Сакварелидзе, Владислав Вашадзе...
Об актёрах подробней

Описание:
По мотивам повести Уиарго (К.Татаришвили) "Мамлюк" о судьбе двух грузинских мальчиков, Гоче и Хвиче, захваченных при набеге на Грузию и проданных в рабство. Гочу продали венецианским работорговцам, а Хвичу купили египетские мамлюки для пополнения своего войска. Оба мальчика забыли свою родину, свой дом, детство, друг друга.
Хвича стал называться Махмудом. В одной из битв он убивает венецианского солдата. И вдруг в умирающем Хвича узнает Гочу. В голове воскресли картины прошлого - детство в родной Грузии, друзья, родные. Дрогнула рука воина. Мамлюки, увидев растерянность Махмуда, обвинили его в измене и убили.

Источник: DVD9 R5
Качество видео: DVDRip
Формат видео: AVI

Видео: 576x432 (4:3), 25 fps, XviD ~ 965 kbps avg, 0.155 bit/pixel
Аудио: 48 kHz, MP3 2.0, 128 kbps

Раздача от:
Общее
Полное имя : Mamlyuk.1958.DVDRip-745_[New-team]_by_AVP_Studio.avi
Формат : AVI
Формат/Информация : Audio Video Interleave
Размер файла : 745 Мбайт
Продолжительность : 1 ч. 34 м.
Общий поток : 1103 Кбит/сек
Программа кодирования : VirtualDubMod 1.5.10.3 | www.virtualdub-fr.org || (build 2550/release)
Библиотека кодирования : VirtualDubMod build 2550/release

Видео
Идентификатор : 0
Формат : MPEG-4 Visual
Профиль формата : Advanced Simple@L5
Параметр BVOP формата : 1
Параметр QPel формата : Нет
Параметр GMC формата : Без точки перехода
Параметр матрицы формата : Выборочная
Идентификатор кодека : XVID
Идентификатор кодека/Подсказка : XviD
Продолжительность : 1 ч. 34 м.
Битрейт : 965 Кбит/сек
Ширина : 576 пикселей
Высота : 432 пикселя
Соотношение сторон : 4:3
Частота кадров : 25,000 кадров/сек
Цветовое пространство : YUV
Субдискретизация насыщенности : 4:2:0
Битовая глубина : 8 бит
Тип развёртки : Прогрессивная
Метод сжатия : С потерями
Бит/(Пиксели*Кадры) : 0.155
Размер потока : 652 Мбайт (88%)
Библиотека кодирования : XviD 73

Аудио
Идентификатор : 1
Формат : MPEG Audio
Версия формата : Version 1
Профиль формата : Layer 3
Идентификатор кодека : 55
Идентификатор кодека/Подсказка : MP3
Продолжительность : 1 ч. 34 м.
Вид битрейта : Постоянный
Битрейт : 128 Кбит/сек
Каналы : 2 канала
Частота : 48,0 КГц
Метод сжатия : С потерями
Размер потока : 86,5 Мбайт (12%)
Выравнивание : Соединение по промежуткам
Продолжительность промежутка : 40 мс. (1,00 видеокадр)
Время предзагрузки промежутка : 504 мс.
Библиотека кодирования : LAME3.99r
Настройки программы : -m s -V 4 -q 2 -lowpass 17 -b 128
pb.wtf



Скачать Мамлюк через торрент http://s02.radikal.ru/i175/1709/4e/45a2658352ab.png Скачать фильм Мамлюк через торрент бесплантно в хорошем качестве Описание:По мотивам повести Уиарго (К.Татаришвили) "Мамлюк" о судьбе двух грузинских мальчиков, Гоче и Хвиче, захваченных при набеге на ... 10 10 1
Торрент: Зарегистрирован [2017-09-05 09:00] · скачан: 19 раз
Статус: √ проверено
Размер: 745 MB
Как cкачать? Как скачать Мамлюк через торрент | qTorrent

% Раздел Тема Автор DL S | L
Кино СССР [ 1.46 GB ] Мамлюк [1958 СССР военный DVDRip-AVC от AVP Studio] Original + eng fre AVP Studio Скачать
1 | 0
Кино СССР [ 1.46 GB ] Мамлюк [1958 СССР военный DVDRip от AVP Studio] Original + eng fre AVP Studio Скачать
1 | 0


>> Регистрируемся здесь <<






Отзывы и комментарии о схеме читаем и пишем здесь: ---> Отзывы и комментарии о схеме

Новые благодарочки в телеграм довольных пользователей:
скриншот   скриншот   скриншот   скриншот   скриншот
    Дорогой пользователь! Огромная просьба, поблагодарите релизера, оцените раздачу и оставьте свои комментарий, если Вы скачали Мамлюк через торрент бесплатно! Внесите свою лепту в развитие PiratBit!
    Комментировать посты могут только пользователи прошедшие не сложную регистрацию
    Показать сообщения:    

    Мамлюк через торрент
    Скачать бесплатно Мамлюк
    Мамлюк скачать торрент
    Мамлюк смотреть онлайн
    Cкачать фильм Мамлюк бесплатно
    Мамлюк скачать торрент в хорошем качестве
    Мамлюк смотреть онлайн бесплатно в хорошем качестве


    Вы не можете начинать темы
    Вы не можете отвечать на сообщения
    Вы не можете редактировать свои сообщения
    Вы не можете удалять свои сообщения
    Вы не можете голосовать в опросах
    Вы не можете прикреплять файлы к сообщениям
    Вы можете скачивать файлы