MEGA SALE -50% FORZA HORIZON 4 ULTIMATE+ВСЕ DLC+ОНЛАЙН всего за 599р. 299 руб. (супер цена). Внимание количество ограничено!!!

iTunes

1+1

iTunes

мы

iTunes

1

iTunes

Чернобыль

iTunes

Ральф против интернета

Лицензия

ПШазам

Лицензия

Игра престолов

Лицензия

30
pack

ВАЖНО

!!Акция!!

Alien_RageХит недели

RePack

Resident Evil 21

ИГРА 18+

pack

RePack

Metro:Exodus

!!Акция!!

Alien_Rage

RePack

fifa19

RePack

Assassins Creed: Odyssey

RePack

NEED FOR SPEED™ PAYBACK

3 сезон

9 сезон

Бесстыжие 9 сезон

Все сериалы

все сериалы на PB.wtf

RePack

FAR CRY 5
Ребята, катастрофически не хватает 7730р. для оплаты серверов за АВГУСТ (всвязи с блокировками трафик упал в 3 раза), 1-2р., выручайте.
  

Крупный калибр / Big Guns - Tony Arzenta (Дуччо Тессари) [1973 г., Боевик, триллер, драма, криминал, DVDRip-AVC, Профессиональный (многоголосый)] от ExKinoRay pb.wtf

Крупный калибр через торрент pb.wtf

Размер: 2.98 GB | Добавлен: 2 года назад | Торрент скачан:36 раз
Скачать  

05-09-2017 15:24 Крупный калибр Скачать торрент  

Крупный калибр / Big Guns - Tony Arzenta
Год выпуска: 1973
Страна: Италия, Франция
Жанр: Боевик, триллер, драма, криминал
Продолжительность: 01:38:36
Перевод: Профессиональный (многоголосый)

Режиссер: Дуччо Тессари

Премьера в мире: 23 августа 1973

rating

В ролях: Ален Делон, Ричард Конте, Карла Гравина, Марк Порель, Роже Анен, Николетта Макиавелли, Гуидо Альберти, Лино Троизи, Сильвано Транквилли, Коррадо Гайпа

Описание: Тони Ардзента — хладнокровный и неуловимый наемный убийца, работающий на могущественный криминальный синдикат, «лучший» в кровавом «бизнесе». Когда Тони неожиданно сообщает своим боссам, что очередной заказ — его последнее дело, после которого он планирует завязать, они, недолго посовещавшись, выносят ему смертный приговор. Но по трагической случайности вместо Тони во взорвавшейся машине погибают его жена и ребенок. Теперь Ардзента неумолим — ведь ему нечего терять. По-прежнему уверенный в своих силах, он объявляет войну синдикату…

Качество: DVDRip-AVC
Формат: MKV
Видео кодек: MPEG4
Аудио кодек: AC3
Видео: MPEG-4 AVC, 3500 Кбит/с, 718x552@1021x552, 25 кадров/сек
Аудио#1: Русский (AC3, 6 ch, 384 Кбит/с, 48 КГц)
Аудио#2: Французский (AC3, 6 ch, 448 Кбит/с, 48 КГц)
Релиз от:




raw [info]: 718x552p 64:45 @ 25/1 fps (cfr)
x264 [info]: using SAR=64/45
x264 [info]: using cpu capabilities: MMX2 SSE2Fast LZCNT
x264 [info]: profile High, level 4.1
x264 [info]: frame I:859 Avg QP:16.56 size: 62451
x264 [info]: frame P:31490 Avg QP:18.82 size: 32088
x264 [info]: frame B:115551 Avg QP:21.41 size: 13182
x264 [info]: consecutive B-frames: 1.4% 2.9% 8.7% 17.0% 10.3% 54.6% 4.0% 0.4% 0.3% 0.1% 0.0% 0.1% 0.0% 0.0% 0.0% 0.0% 0.0%
-----
Общее
Уникальный идентификатор : 178176499012836710758230861302044621860 (0x860B8BA4CE5833839A7344520298FC24)
Полное имя : D:\Relizes\Tony.Arzenta.1973.DVDRip-AVC.ExKinoRay.mkv
Формат : Matroska
Версия формата : Version 2
Размер файла : 2,98 Гбайт
Продолжительность : 1 ч. 38 м.
Общий поток : 4333 Кбит/сек
Дата кодирования : UTC 2017-09-05 01:45:32
Программа кодирования : mkvmerge v7.8.0 ('River Man') 32bit built on Apr 3 2015 12:11:22
Библиотека кодирования : libebml v1.3.1 + libmatroska v1.4.2

Видео
Идентификатор : 1
Формат : AVC
Формат/Информация : Advanced Video Codec
Профиль формата : High@L4.1
Параметр CABAC формата : Да
Параметр ReFrames формата : 14 кадров
Идентификатор кодека : V_MPEG4/ISO/AVC
Продолжительность : 1 ч. 38 м.
Битрейт : 3500 Кбит/сек
Ширина : 718 пикселей
Высота : 552 пикселя
Соотношение сторон : 1,85:1
Режим частоты кадров : Постоянный
Частота кадров : 25,000 кадров/сек
Цветовое пространство : YUV
Субдискретизация насыщенности : 4:2:0
Битовая глубина : 8 бит
Тип развёртки : Прогрессивная
Бит/(Пиксели*Кадры) : 0.353
Размер потока : 2,35 Гбайт (79%)
Библиотека кодирования : x264 core 148 r2638 7599210
Настройки программы : cabac=1 / ref=14 / deblock=1:-2:-2 / analyse=0x3:0x133 / me=umh / subme=10 / psy=1 / psy_rd=1.05:0.15 / mixed_ref=1 / me_range=32 / chroma_me=1 / trellis=2 / 8x8dct=1 / cqm=0 / deadzone=21,11 / fast_pskip=0 / chroma_qp_offset=-3 / threads=4 / lookahead_threads=1 / sliced_threads=0 / nr=0 / decimate=0 / interlaced=0 / bluray_compat=0 / constrained_intra=0 / bframes=16 / b_pyramid=2 / b_adapt=2 / b_bias=0 / direct=3 / weightb=1 / open_gop=0 / weightp=2 / keyint=250 / keyint_min=25 / scenecut=40 / intra_refresh=0 / rc=2pass / mbtree=0 / bitrate=3500 / ratetol=1.0 / qcomp=0.60 / qpmin=0 / qpmax=69 / qpstep=4 / cplxblur=20.0 / qblur=0.5 / ip_ratio=1.40 / pb_ratio=1.30 / aq=1:1.00
Язык : English
Default : Да
Forced : Нет
Цветовой диапазон : Limited
Основные цвета : BT.601 NTSC
Характеристики трансфера : BT.601
Коэффициенты матрицы : BT.601

Аудио #1
Идентификатор : 2
Формат : AC-3
Формат/Информация : Audio Coding 3
Расширение режима : CM (complete main)
Параметр Endianness формата : Big
Идентификатор кодека : A_AC3
Продолжительность : 1 ч. 38 м.
Вид битрейта : Постоянный
Битрейт : 384 Кбит/сек
Каналы : 6 каналов
Расположение каналов : Front: L C R, Side: L R, LFE
Частота : 48,0 КГц
Частота кадров : 31,250 кадров/сек (1536 spf)
Метод сжатия : С потерями
Размер потока : 271 Мбайт (9%)
Язык : Russian
Default : Да
Forced : Нет

Аудио #2
Идентификатор : 3
Формат : AC-3
Формат/Информация : Audio Coding 3
Расширение режима : CM (complete main)
Параметр Endianness формата : Big
Идентификатор кодека : A_AC3
Продолжительность : 1 ч. 38 м.
Вид битрейта : Постоянный
Битрейт : 448 Кбит/сек
Каналы : 6 каналов
Расположение каналов : Front: L C R, Side: L R, LFE
Частота : 48,0 КГц
Частота кадров : 31,250 кадров/сек (1536 spf)
Метод сжатия : С потерями
Размер потока : 316 Мбайт (10%)
Язык : French
Default : Нет
Forced : Нет

pb.wtf



Скачать Крупный калибр через торрент http://s019.radikal.ru/i615/1709/07/7e332ca7ba91.jpg Скачать фильм Крупный калибр через торрент бесплантно в хорошем качестве Описание: Тони Ардзента — хладнокровный и неуловимый наемный убийца, работающий на могущественный криминальный синдикат, «лучший» в ... 10 10 1
Info! Золотая раздача, скачанное не засчитывается.
Торрент: Зарегистрирован [2017-09-05 15:24] · скачан: 36 раз
Статус: √ проверено
Размер: 2.98 GB
Как cкачать? Как скачать Крупный калибр через торрент | qTorrent


>> Регистрируемся здесь <<






Отзывы и комментарии о схеме читаем и пишем здесь: ---> Отзывы и комментарии о схеме

Новые благодарочки в телеграм довольных пользователей:
скриншот   скриншот   скриншот   скриншот   скриншот

05-09-2017 16:47 Крупный калибр Скачать торрент  

Топик был перенесен из форума Оформление раздач (Кино, Видео и ТВ) в форум Классика зарубежного кино


-Lexx-pb.wtf



    Дорогой пользователь! Огромная просьба, поблагодарите релизера, оцените раздачу и оставьте свои комментарий, если Вы скачали Крупный калибр через торрент бесплатно! Внесите свою лепту в развитие PiratBit!
    Комментировать посты могут только пользователи прошедшие не сложную регистрацию
    Показать сообщения:    

    Крупный калибр через торрент
    Скачать бесплатно Крупный калибр
    Крупный калибр скачать торрент
    Крупный калибр смотреть онлайн
    Cкачать фильм Крупный калибр бесплатно
    Крупный калибр скачать торрент в хорошем качестве
    Крупный калибр смотреть онлайн бесплатно в хорошем качестве


    Вы не можете начинать темы
    Вы не можете отвечать на сообщения
    Вы не можете редактировать свои сообщения
    Вы не можете удалять свои сообщения
    Вы не можете голосовать в опросах
    Вы не можете прикреплять файлы к сообщениям
    Вы можете скачивать файлы