Ссылка на приватное зеркало нашего сайта всего за 1$. Внимание количество ограничено!!!

2 сезон

iTunes

1 сезон

1

iTunes

iTunes

iTunes

1 сезон

RePack

30

ИГРА 18+

pack

ВАЖНО

!!Акция!!

Alien_RageХит недели

RePack

MK11
pack

Забери бонус

RePack

jed

!!Акция!!

Alien_Rage

RePack

fifa19

RePack

Assassins Creed: Odyssey

RePack

NEED FOR SPEED™ PAYBACK

4 сезон

9 сезон

Бесстыжие 9 сезон

Все сериалы

все сериалы на PB.wtf

RePack

FAR CRY 5
  

Последнее метро / Le dernier metro (Франсуа Трюффо) [1980, драма, мелодрама, военный, BDRip 720p от еnvy / NNNB] MVO pb.wtf

Последнее метро через торрент pb.wtf

Качают: 1 [ 0 KB/s ]
Размер: 10.57 GB | Добавлен: 3 года 1 мес. назад | Торрент скачан:17 раз
Скачать  

05-09-2017 15:43 Последнее метро Скачать торрент  

Информация о фильме

Русское название: Последнее метро
Оригинальное название: Le dernier metro
Год выхода: 1980
Жанр: драма, мелодрама, военный
Режиссер: Франсуа Трюффо
Выпущено: Франция
Продолжительность: 02:12:17
Перевод: Профессиональный (многоголосый, закадровый)
В ролях: Катрин Денёв, Жерар Депардье, Андреа Ферреоль, Полетт Дюбо, Жан-Луи Ришар, Морис Риш, Сабин Одепен, Хайнц Беннент, Пьер Бело, Роуз Тьери, Жакоб Вайсблут, Марсель Бербер, Рене Дюпре, Жан Пуаре, Ласло Сабо, Жан-Жосе Рише, Ришар Боринже, Кристиан Бальтосс, Алан Тасма, Рената Флорес, Од Лорин, Эния Сушар
Описание:

Вторая Мировая. Оккупированный Париж. Общество расколото на молчаливое большинство, невидимых партизан, открытых коллаборационистов и жертв режима, скрывающихся от нацистской расправы. К последним относится польский еврей Лукас Штайнер, театральный режиссер и муж ведущей актрисы — Марион Штайнер. С риском для себя и всего коллектива Марион решает спрятать мужа в подвале театра, откуда Лукас продолжает вдохновенно, через жену, готовить новую премьеру.
На Марион тем временем ложится одна забота за другой: тайно носить еду в подвал (что в условиях тотального доносительства превращается в целое искусство); распространять слухи, что ее муж сбежал из города; аккуратно сдерживать натиск влиятельного немецкого ухажера. Вдобавок Марион увлекается коллегой — актером Бернаром.


Файл

Качество: BDRip 720p (исходник Blu-Ray Disc Remux 1080p GER Transfer)
Контейнер: MKV (расширение файла)
Видео: 1198x720, 10860 Кбит/сек, 23,976 кадр/сек, AVC, x264, High@L4.1, 5:3, 0.525 Бит/[Пиксели*Кадры]
Аудио 1: AC-3, 192 Кбит/сек, 2 канала(ов), 48,0 КГц - Многоголосый закадровый, Кармен Видео / Русский
Аудио 2: AC-3, 192 Кбит/сек, 2 канала(ов), 48,0 КГц - Многоголосый закадровый, ТК "Домашний" / Русский
Аудио 3: AC-3, 192 Кбит/сек, 2 канала(ов), 48,0 КГц - Оригинал / Французский
Субтитры: Русские | Полные, Английские | Полные
Форсированные субтитры: Нет
Чаптеры (Главы): Есть (Подписаны Eng)






Автор Рипа: Группа:


Format : Matroska
Format version : Version 2
File size : 10.6 GiB
Duration : 2 h 12 min
Overall bit rate : 11.4 Mb/s
Movie name : Le dernier métro.(1980).BDRip.720p.[envy]
Encoded date : UTC 2017-09-05 15:20:22
Writing application : mkvmerge v5.8.0 ('No Sleep / Pillow') built on Sep 2 2012 15:37:04
Writing library : libebml v1.2.3 + libmatroska v1.3.0

Video
ID : 1
Format : AVC
Format/Info : Advanced Video Codec
Format profile : High@L4.1
Format settings, CABAC : Yes
Format settings, RefFrames : 9 frames
Codec ID : V_MPEG4/ISO/AVC
Duration : 2 h 12 min
Bit rate : 10.9 Mb/s
Width : 1 198 pixels
Height : 720 pixels
Display aspect ratio : 5:3
Frame rate mode : Constant
Frame rate : 23.976 (24000/1001) FPS
Color space : YUV
Chroma subsampling : 4:2:0
Bit depth : 8 bits
Scan type : Progressive
Bits/(Pixel*Frame) : 0.525
Stream size : 9.83 GiB (93%)
Title : Le dernier métro.(1980).BDRip.720p.[envy]
Writing library : x264 core 148 r2744 b97ae06
Encoding settings : cabac=1 / ref=9 / deblock=1:-3:-3 / analyse=0x3:0x113 / me=umh / subme=11 / psy=1 / psy_rd=1.00:0.09 / mixed_ref=1 / me_range=32 / chroma_me=1 / trellis=2 / 8x8dct=1 / cqm=0 / deadzone=21,11 / fast_pskip=0 / chroma_qp_offset=-3 / threads=12 / lookahead_threads=1 / sliced_threads=0 / nr=0 / decimate=1 / interlaced=0 / bluray_compat=0 / constrained_intra=0 / bframes=5 / b_pyramid=2 / b_adapt=2 / b_bias=0 / direct=3 / weightb=1 / open_gop=0 / weightp=2 / keyint=240 / keyint_min=23 / scenecut=40 / intra_refresh=0 / rc=2pass / mbtree=0 / bitrate=10860 / ratetol=1.0 / qcomp=0.60 / qpmin=0 / qpmax=69 / qpstep=4 / cplxblur=20.0 / qblur=0.5 / ip_ratio=1.40 / pb_ratio=1.30 / aq=1:0.70
Language : French
Default : Yes
Forced : No

Audio #1
ID : 2
Format : AC-3
Format/Info : Audio Coding 3
Format settings, Endianness : Big
Codec ID : A_AC3
Duration : 2 h 12 min
Bit rate mode : Constant
Bit rate : 192 kb/s
Channel(s) : 2 channels
Channel positions : Front: L R
Sampling rate : 48.0 kHz
Frame rate : 31.250 FPS (1536 SPF)
Bit depth : 16 bits
Compression mode : Lossy
Stream size : 182 MiB (2%)
Title : MVO Кармен Видео
Language : Russian
Service kind : Complete Main
Default : Yes
Forced : No

Audio #2
ID : 3
Format : AC-3
Format/Info : Audio Coding 3
Format settings, Endianness : Big
Codec ID : A_AC3
Duration : 2 h 12 min
Bit rate mode : Constant
Bit rate : 192 kb/s
Channel(s) : 2 channels
Channel positions : Front: L R
Sampling rate : 48.0 kHz
Frame rate : 31.250 FPS (1536 SPF)
Bit depth : 16 bits
Compression mode : Lossy
Stream size : 182 MiB (2%)
Title : MVO ТК "Домашний"
Language : Russian
Service kind : Complete Main
Default : No
Forced : No

Audio #3
ID : 4
Format : AC-3
Format/Info : Audio Coding 3
Format settings, Endianness : Big
Codec ID : A_AC3
Duration : 2 h 12 min
Bit rate mode : Constant
Bit rate : 192 kb/s
Channel(s) : 2 channels
Channel positions : Front: L R
Sampling rate : 48.0 kHz
Frame rate : 31.250 FPS (1536 SPF)
Bit depth : 16 bits
Compression mode : Lossy
Stream size : 182 MiB (2%)
Title : Fre
Language : French
Service kind : Complete Main
Default : No
Forced : No

Text #1
ID : 5
Format : UTF-8
Codec ID : S_TEXT/UTF8
Codec ID/Info : UTF-8 Plain Text
Title : Rus full
Language : Russian
Default : No
Forced : No

Text #2
ID : 6
Format : UTF-8
Codec ID : S_TEXT/UTF8
Codec ID/Info : UTF-8 Plain Text
Title : Eng full
Language : English
Default : No
Forced : No

Menu
00:00:00.000 : en:Occupation
00:03:30.355 : en:A real theater
00:08:26.242 : en:Rules and permits
00:14:50.101 : en:Performances
00:20:49.560 : en:Visitors
00:23:34.466 : en:Accepting everything
00:25:39.099 : en:Underground
00:31:22.292 : en:Smear campaign
00:32:51.657 : en:Suspicions
00:37:12.067 : en:Crazy ideas
00:40:22.799 : en:Plans
00:44:13.003 : en:Casting
00:46:04.248 : en:Discoveries
00:51:17.211 : en:Close call
00:54:29.745 : en:Unseen influences
01:00:15.966 : en:Fixing things
01:03:21.068 : en:Warnings
01:10:18.893 : en:Revelations
01:13:58.221 : en:A disastrous evening
01:20:21.000 : en:Missing
01:22:58.911 : en:Opening night
01:32:28.008 : en:Backstage
01:37:11.127 : en:Reviews
01:39:40.000 : en:New thoughts
01:44:36.040 : en:Ways out
01:49:57.795 : en:Resistance
01:53:42.420 : en:Inspection
01:56:51.149 : en:Stage design
01:59:58.428 : en:Two women
02:04:04.015 : en:Connections
02:06:48.045 : en:Curtain call

pb.wtf



Скачать Последнее метро через торрент http://img12.lostpic.net/2017/09/05/9c71d38fae63e21263d3f6cd2d9dfab0.png Скачать фильм Последнее метро через торрент бесплантно в хорошем качестве Описание:Вторая Мировая. Оккупированный Париж. Общество расколото на молчаливое большинство, невидимых партизан, открытых ... 10 10 3
Info! Золотая раздача, скачанное не засчитывается.
Торрент: Зарегистрирован [2017-09-05 15:43] · скачан: 17 раз
Статус: √ проверено
Размер: 10.57 GB
Как cкачать? Как скачать Последнее метро через торрент | qTorrent

28-11-2019 20:33  

Отключить всю рекламу на сайте

    Дорогой пользователь! Огромная просьба, поблагодарите релизера, оцените раздачу и оставьте свои комментарий, если Вы скачали Последнее метро через торрент бесплатно! Внесите свою лепту в развитие PiratBit!
    Комментировать посты могут только пользователи прошедшие не сложную регистрацию
    Показать сообщения:    

    Последнее метро через торрент
    Скачать бесплатно Последнее метро
    Последнее метро скачать торрент
    Последнее метро смотреть онлайн
    Cкачать фильм Последнее метро бесплатно
    Последнее метро скачать торрент в хорошем качестве
    Последнее метро смотреть онлайн бесплатно в хорошем качестве


    Вы не можете начинать темы
    Вы не можете отвечать на сообщения
    Вы не можете редактировать свои сообщения
    Вы не можете удалять свои сообщения
    Вы не можете голосовать в опросах
    Вы не можете прикреплять файлы к сообщениям
    Вы можете скачивать файлы