2 сезон

iTunes

MVO

1

2 сезон

iTunes

iTunes

1 сезон

RePack

30

Новинка

ВАЖНО

ИГРА 18+

pack

RePack

MK11
pack

Легкие деньги

RePack

jed

RePack

fifa19

RePack

RDR2

RePack

NEED FOR SPEED™ PAYBACK

4 сезон

9 сезон

Бесстыжие 9 сезон

Все сериалы

все сериалы на PB.wtf

RePack

FAR CRY 5

Anonymous, добрый вечер, мы не успеваем собрать деньги на оплату серверов за декабрь и январь, помогите нам пожалуйста в это трудное время. В качестве благодарности мы отключим Вам всю рекламу на сайте (укажите свой ник в строку Ваше имя)!

×
  
Magnet ссылка

Грейсфилд / The Gracefield Incident (Матье Рэтхи) [2017, Фантастика, ужасы, боевик, триллер, детектив, BDRip-AVC] DUB [iTunes] pb.wtf

Грейсфилд через торрент pb.wtf

Размер: 2.54 GB | Добавлен: 3 года 4 мес. назад | Торрент скачан:352 раза
Скачать  

05-09-2017 16:16 Грейсфилд Скачать торрент  

Грейсфилд / The Gracefield IncidentГод выпуска: 2017
Страна: США, Канада
Жанр: Фантастика, ужасы, боевик, триллер, детектив
Продолжительность: 01:25:01
Перевод: Дубляж iTunes
Субтитры: Английские
Реклама: Отсутствует

Режиссер: Матье Рэтхи

rating

В ролях:

Лоуренс Дофинаис, Джульетт Госселин, Лори Грэхэм, Кимберли Лаферрье, Алекс С. Нати, Матье Рэтхи, Виктор Трелье

Описание:

В центре сюжета находится разработчик видеоигр Мэтт Донован, который вместе с пятью своими друзьями решает отправиться в комфортабельный загородный дом, чтобы как следует отдохнуть. Запечатлеть безудержное веселье Мэтту помогает видеокамера, встроенная в его глазном протезе. Неожиданно в процессе отрыва ребята слышат громкий звук, раздавшийся в лесу, замечают необычное свечение в ночном небе и нечто, упавшее с прямо неподалеку от их домика. Отправившись на поиски объекта, от которого исходит ужасный шум, друзья обнаруживают в лесу упавший метеорит. Не в силах сдержать любопытства, молодые люди начинают осматривать и ощупывать метеорит, не подозревая, что Землю прибыли агрессивно настроенные инопланетяне, а их отдых в итоге превратится в отчаянную борьбу за выживание.


Качество: BDRip-AVC
Формат: MKV
Видео кодек: H.264
Аудио кодек: AC3

Видео: 1024x438 (16:9), 23.976 fps, x264 ~3449 kbps avg, 0.321 bit/pixel
Аудио#1: 48 kHz, AC3 Dolby Digital, 3/2 (L,C,R,l,r) + LFE ch, ~384.00 kbps avg | RUS (iTunes)
Аудио#2: 48 kHz, AC3 Dolby Digital, 3/2 (L,C,R,l,r) + LFE ch, ~448.00 kbps avg | ENG
скриншот   скриншот   скриншот   скриншот   скриншот  

Общее
Уникальный идентификатор : 246137918278877708030092544082839443143 (0xB92C70505CF1213D84B3CC93ACED96C7)
Полное имя : D:The.Gracefield.Incident.2017.BDRip(AVC).OlLanDGroup.mkv
Формат : Matroska
Версия формата : Version 2
Размер файла : 2,54 Гбайт
Продолжительность : 1 ч. 25 м.
Общий поток : 4282 Кбит/сек
Название фильма : The.Gracefield.Incident.2017 #TorpedoUK#
Дата кодирования : UTC 2017-09-05 15:10:02
Программа кодирования : mkvmerge v7.8.0 ('River Man') 32bit built on Apr 3 2015 12:11:22
Библиотека кодирования : libebml v1.3.1 + libmatroska v1.4.2
Обложка : Yes
Attachments : cover_land.jpg / small_cover.jpg / small_cover_land.jpg / cover.jpg

Видео
Идентификатор : 1
Формат : AVC
Формат/Информация : Advanced Video Codec
Профиль формата : High@L4.1
Параметр CABAC формата : Да
Параметр ReFrames формата : 10 кадров
Идентификатор кодека : V_MPEG4/ISO/AVC
Продолжительность : 1 ч. 25 м.
Битрейт : 3449 Кбит/сек
Ширина : 1024 пикселя
Высота : 438 пикселей
Соотношение сторон : 2,35:1
Режим частоты кадров : Постоянный
Частота кадров : 23,976 (24000/1001) кадра/сек
Цветовое пространство : YUV
Субдискретизация насыщенности : 4:2:0
Битовая глубина : 8 бит
Тип развёртки : Прогрессивная
Бит/(Пиксели*Кадры) : 0.321
Размер потока : 2,00 Гбайт (79%)
Библиотека кодирования : x264 core 146 r2538 121396c
Настройки программы : cabac=1 / ref=10 / deblock=1:-3:-3 / analyse=0x3:0x133 / me=umh / subme=11 / psy=1 / psy_rd=1.00:0.07 / mixed_ref=1 / me_range=48 / chroma_me=1 / trellis=2 / 8x8dct=1 / cqm=0 / deadzone=21,11 / fast_pskip=0 / chroma_qp_offset=-3 / threads=6 / lookahead_threads=1 / sliced_threads=0 / nr=0 / decimate=0 / interlaced=0 / bluray_compat=0 / constrained_intra=0 / bframes=10 / b_pyramid=2 / b_adapt=2 / b_bias=0 / direct=3 / weightb=1 / open_gop=0 / weightp=2 / keyint=240 / keyint_min=23 / scenecut=40 / intra_refresh=0 / rc_lookahead=40 / rc=2pass / mbtree=0 / bitrate=3449 / ratetol=1.0 / qcomp=0.60 / qpmin=0 / qpmax=69 / qpstep=4 / cplxblur=20.0 / qblur=0.5 / vbv_maxrate=50000 / vbv_bufsize=62500 / nal_hrd=none / filler=0 / ip_ratio=1.40 / pb_ratio=1.30 / aq=1:1.00
Язык : English
Default : Да
Forced : Нет

Аудио #1
Идентификатор : 2
Формат : AC-3
Формат/Информация : Audio Coding 3
Расширение режима : CM (complete main)
Параметр Endianness формата : Big
Идентификатор кодека : A_AC3
Продолжительность : 1 ч. 25 м.
Вид битрейта : Постоянный
Битрейт : 384 Кбит/сек
Каналы : 6 каналов
Расположение каналов : Front: L C R, Side: L R, LFE
Частота : 48,0 КГц
Частота кадров : 31,250 кадров/сек (1536 spf)
Битовая глубина : 16 бит
Метод сжатия : С потерями
Размер потока : 234 Мбайт (9%)
Заголовок : iTunes
Язык : Russian
Default : Да
Forced : Нет

Аудио #2
Идентификатор : 3
Формат : AC-3
Формат/Информация : Audio Coding 3
Расширение режима : CM (complete main)
Параметр Endianness формата : Big
Идентификатор кодека : A_AC3
Продолжительность : 1 ч. 25 м.
Вид битрейта : Постоянный
Битрейт : 448 Кбит/сек
Каналы : 6 каналов
Расположение каналов : Front: L C R, Side: L R, LFE
Частота : 48,0 КГц
Частота кадров : 31,250 кадров/сек (1536 spf)
Битовая глубина : 16 бит
Метод сжатия : С потерями
Размер потока : 273 Мбайт (10%)
Заголовок : Original
Язык : English
Default : Нет
Forced : Нет

Меню
00:00:00.000 : en:Chapter 01
00:05:18.901 : en:Chapter 02
00:09:50.840 : en:Chapter 03
00:17:19.621 : en:Chapter 04
00:23:11.223 : en:Chapter 05
00:32:04.714 : en:Chapter 06
00:38:35.938 : en:Chapter 07
00:45:57.880 : en:Chapter 08
00:54:40.443 : en:Chapter 09
01:02:40.006 : en:Chapter 10
01:10:38.651 : en:Chapter 11
01:18:01.760 : en:Chapter 12

pb.wtf



Скачать Грейсфилд через торрент http://s016.radikal.ru/i334/1709/af/82db76463788.jpg Скачать фильм Грейсфилд через торрент бесплантно в хорошем качестве Описание: В центре сюжета находится разработчик видеоигр Мэтт Донован, который вместе с пятью своими друзьями решает отправиться в ... 10 10 8
Торрент: Зарегистрирован [2017-09-05 16:16] · скачан: 352 раз
Статус: √ проверено
Размер: 2.54 GB
Как cкачать? Как скачать Грейсфилд через торрент | UTorrent

% Раздел Тема Автор DL S | L
Фильмы (WEB-DL 720p, 1080p) [ 2.88 GB ] Грейсфилд / The Gracefield Incident [2017 WEB-DL 720p] bober100 Скачать
1 | 0
Фильмы [HD 720p, 1080p] (Хороший звук DUB, MVO) [ 9.22 GB ] Грейсфилд / The Gracefield Incident [2017 BDRip 1080p] bober100 Скачать
1 | 0
Фильмы 2017 [DVDrip, WEB-DLRip, HDrip] (DUB, MVO) [ 1.42 GB ] Грейсфилд / The Gracefield Incident [2017 BDRip] - Twi7ter Скачать
1 | 0

28-11-2019 20:33  

Отключить всю рекламу на сайте

    Дорогой пользователь! Огромная просьба, поблагодарите релизера, оцените раздачу и оставьте свои комментарий, если Вы скачали Грейсфилд через торрент бесплатно! Внесите свою лепту в развитие PiratBit!
    Комментировать посты могут только пользователи прошедшие не сложную регистрацию
    Показать сообщения:    

    Грейсфилд через торрент
    Скачать бесплатно Грейсфилд
    Грейсфилд скачать торрент
    Грейсфилд смотреть онлайн
    Cкачать фильм Грейсфилд бесплатно
    Грейсфилд скачать торрент в хорошем качестве
    Грейсфилд смотреть онлайн бесплатно в хорошем качестве


    Вы не можете начинать темы
    Вы не можете отвечать на сообщения
    Вы не можете редактировать свои сообщения
    Вы не можете удалять свои сообщения
    Вы не можете голосовать в опросах
    Вы не можете прикреплять файлы к сообщениям
    Вы можете скачивать файлы