Ссылка на приватное зеркало нашего сайта всего за 1$. Внимание количество ограничено!!!

2 сезон

iTunes

1 сезон

1

2 сезон

2 сезон

iTunes

1 сезон

RePack

30

Новинка

ВАЖНО

ИГРА 18+

pack

RePack

MK11
pack

Забери бонус

RePack

jed

!!Акция!!

Alien_Rage

RePack

fifa19

RePack

Assassins Creed: Odyssey

RePack

NEED FOR SPEED™ PAYBACK

4 сезон

9 сезон

Бесстыжие 9 сезон

Все сериалы

все сериалы на PB.wtf

RePack

FAR CRY 5
  

Проповедник / Preacher / Сезон 2 / Серии 1-13 из 13 (Эван Голдберг, Сет Роген) [2017, фантастика, драма, комедия, WEBRip] [DVO] [Кубик в Кубе] + [Sub] (Eng) pb.wtf

Проповедник через торрент pb.wtf

Раздают: 1 [ 0 KB/s ]
Размер: 12 GB | Добавлен: 3 года 2 мес. назад | Торрент скачан:81 раз
Скачать  

06-09-2017 05:41 Проповедник Скачать торрент  


Проповедник / Preacher


Год выпуска: 2017
Страна: США
Жанр: фэнтези, драма, детектив, приключения
Продолжительность: 1x ~ 01:00:00
Перевод: Профессиональный (двухголосый, закадровый) | Кубик в Кубе
Субтитры: английские

Режиссеры: Эван Голдберг, Сет Роген, Майкл Словис

В ролях: Доминик Купер, Джозеф Гилган, Рут Негга, Люси Гриффитс, У. Эрл Браун, Том Брук, Анатол Юсеф, Йен Коллетти, Дерек Уилсон, Джеки Эрл Хейли

Описание: Священник Джесси Кастер по воле случая стал носителем внутри своего естества странного существа по имени Генезис. Это дитя совокупления ангела и демона представляет собой одновременно чистый идеал и квинтэссенцию света, но также сгусток абсолютного зла. Генезис — единственное существо во Вселенной, которое может встать вровень с Богом, если того пожелает, а его носитель автоматически становится самым могущественным существом в материальном мире. И это проповедник Кастер.


Релиз --

Качество: WEBRip
Формат: AVI
Видео: AVI, 720x400 (1.80:1), 23.976 fps, XviD MPEG-4 ~2000 kbps avg, 0.35 bit/pixel
Аудио: 48.0 kHz, AC3 Dolby Digital, 3/2 (L,C,R,l,r) + LFE ch, ~384 kbps - DVO
Аудио: 48.0 kHz, AC3 Dolby Digital, 3/2 (L,C,R,l,r) + LFE ch, ~384 kbps - ENG
скриншот  скриншот  скриншот  
General
Complete name : E:\Preacher Season 2 CasStudio.TV\Preacher.s02e01.rus.eng.CasStudio.avi
Format : AVI
Format/Info : Audio Video Interleave
File size : 885 MiB
Duration : 44mn 29s
Overall bit rate : 2 782 Kbps
Writing application : VirtualDubMod 1.5.10.2 (build 2540/release)
Writing library : VirtualDubMod build 2540/release

Video
ID : 0
Format : MPEG-4 Visual
Format profile : Advanced Simple@L5
Format settings, BVOP : 1
Format settings, QPel : No
Format settings, GMC : No warppoints
Format settings, Matrix : Default (MPEG)
Codec ID : XVID
Codec ID/Hint : XviD
Duration : 44mn 29s
Bit rate : 1 893 Kbps
Width : 720 pixels
Height : 400 pixels
Display aspect ratio : 16:9
Frame rate : 23.976 fps
Color space : YUV
Chroma subsampling : 4:2:0
Bit depth : 8 bits
Scan type : Progressive
Compression mode : Lossy
Bits/(Pixel*Frame) : 0.274
Stream size : 602 MiB (68%)
Writing library : XviD 73

Audio #1
ID : 1
Format : AC-3
Format/Info : Audio Coding 3
Mode extension : CM (complete main)
Format settings, Endianness : Big
Codec ID : 2000
Duration : 44mn 29s
Bit rate mode : Constant
Bit rate : 384 Kbps
Channel(s) : 6 channels
Channel positions : Front: L C R, Side: L R, LFE
Sampling rate : 48.0 KHz
Compression mode : Lossy
Stream size : 122 MiB (14%)
Alignment : Split accross interleaves

Audio #2
ID : 2
Format : AC-3
Format/Info : Audio Coding 3
Mode extension : CM (complete main)
Format settings, Endianness : Big
Codec ID : 2000
Duration : 44mn 29s
Bit rate mode : Constant
Bit rate : 384 Kbps
Channel(s) : 6 channels
Channel positions : Front: L C R, Side: L R, LFE
Sampling rate : 48.0 KHz
Compression mode : Lossy
Stream size : 122 MiB (14%)
Alignment : Split accross interleaves
Когда раздача ведётся путём добавления новых серий, при каждом добавлении создётся новый торрент. Чтобы начать докачку новой серии, пользователям необходимо сделать следующее:
(1) остановить скачивание,
(2) удалить старый торрент у себя из клиента (старые серии удалять не надо),
(3) скачать новый торрент и запустить его у себя в клиенте вместо старого, при этом указать клиенту путь в старую папку, куда и должно происходить скачивание новых серий.
Ваш клиент при этом должен произвести хеширование (проверку) старой папки (если не производит сам - помогите ему сделать это), и будет докачивать только те серии, которых у вас ещё нет. Старые серии при этом не удаляются, а продолжают раздаваться!
Eсли вы уже удалили старые серии, то предотвратить повторную закачку старых серий можно, отжав галочку в соответсвующих местах при запуске нового торрента. По возможности, желательно не удалять старые серии как можно дольше, чтобы релизёр не столько продолжал раздавать старые серии, а смог сконцентрироваться на новых.
pb.wtf



Скачать Проповедник через торрент http://i89.fastpic.ru/big/2017/0906/d4/4d8d934da17f29c7c570ad8e7c6700d4.jpg Скачать фильм Проповедник через торрент бесплантно в хорошем качестве Описание: Священник Джесси Кастер по воле случая стал носителем внутри своего естества странного существа по имени Генезис. Это дитя ... 10 10 3
Торрент: Зарегистрирован [2017-09-21 12:10] · скачан: 81 раз
Статус: √ проверено
Размер: 12 GB
Как cкачать? Как скачать Проповедник через торрент | qTorrent

% Раздел Тема Автор DL S | L
Зарубежные сериалы [ 7.15 GB ] Проповедник / Preacher / Сезон 2 / Серии 1-13 из 13 [2017 WEBRip] DVO [Кубик в Кубе] bober100 Скачать
1 | 0
Зарубежные сериалы [ 24.81 GB ] Проповедник / Preacher / Сезон 2 / Серии 1-13 из 13 [2017 WEB-DL 1080p] MVO [AlexFilm] bober100 Скачать
1 | 0
Зарубежные сериалы [ 14.64 GB ] Проповедник / Preacher / Сезон 2 / Серии 1-13 из 13 [2017 WEBRip 720p] DVO [Кубик в Кубе] bober100 Скачать
1 | 0
Зарубежные сериалы [ 10.84 GB ] Проповедник / Preacher / Сезон 2 / Серии 1-13 из 13 [2017 HDTVRip 720p] DVO [Susnhine Studio] bober100 Скачать
1 | 0
Зарубежные сериалы [ 18.97 GB ] Проповедник / Preacher / Сезон 2 / Серии 1-13 из 13 [2017 WEBRip 720p] MVO [AlexFilm] bober100 Скачать
1 | 0
R.G.Resident - Сериалы, Видео [ 2.92 GB ] Проповедник / Preacher / Сезон: 2 / Серии 1-5 из 13 [2017 WEB-DLRip-AVC многоголосый [AlexFilm] ] White Smoke Скачать
1 | 0
Зарубежные сериалы [ 7.2 GB ] Проповедник / Preacher / Сезон: 2 / Серии 1-13 из 13 [2016 экранизация комикса WEB-DLRip] [MVO] killermax2013 Скачать
1 | 0

28-11-2019 20:33  

Отключить всю рекламу на сайте

    Дорогой пользователь! Огромная просьба, поблагодарите релизера, оцените раздачу и оставьте свои комментарий, если Вы скачали Проповедник через торрент бесплатно! Внесите свою лепту в развитие PiratBit!
    Комментировать посты могут только пользователи прошедшие не сложную регистрацию
    Показать сообщения:    

    Проповедник через торрент
    Скачать бесплатно Проповедник
    Проповедник скачать торрент
    Проповедник смотреть онлайн
    Cкачать фильм Проповедник бесплатно
    Проповедник скачать торрент в хорошем качестве
    Проповедник смотреть онлайн бесплатно в хорошем качестве


    Вы не можете начинать темы
    Вы не можете отвечать на сообщения
    Вы не можете редактировать свои сообщения
    Вы не можете удалять свои сообщения
    Вы не можете голосовать в опросах
    Вы не можете прикреплять файлы к сообщениям
    Вы можете скачивать файлы