новый адрес
Мега распродажа FORZA HORIZON 4 ULTIMATE+ВСЕ DLC+ОНЛАЙН всего за 499р. 349 руб. (супер цена). Внимание количество ограничено!!!

iTunes

1+1

iTunes

мы

iTunes

1

iTunes

Чернобыль

iTunes

Ральф против интернета

Лицензия

ПШазам

Лицензия

Игра престолов

Лицензия

30
pack

ВАЖНО

!!Акция!!

Alien_RageХит недели

RePack

Resident Evil 21

ИГРА 18+

pack

RePack

Metro:Exodus

!!Акция!!

Alien_Rage

RePack

fifa19

RePack

Assassins Creed: Odyssey

RePack

NEED FOR SPEED™ PAYBACK

3 сезон

9 сезон

Бесстыжие 9 сезон

Все сериалы

все сериалы на PB.wtf

RePack

FAR CRY 5
Ребята, катастрофически не хватает 1900р. для оплаты серверов за Октябрь (всвязи с блокировками трафик упал в 3 раза), 1-2р., выручайте.
  

На дальних берегах (Тофиг Тагизаде) [1958, СССР, боевик, приключения, биография, DVDRip от AVP Studio] pb.wtf

На дальних берегах через торрент pb.wtf

Размер: 1.09 GB | Добавлен: 2 года 2 мес. назад | Торрент скачан:24 раза
Скачать  

06-09-2017 09:08 На дальних берегах Скачать торрент  

На дальних берегах
Страна: СССР
Производство: Бакинская киностудия

Жанр: боевик, приключения, биография
Год выпуска: 1958
Продолжительность: 01:27:18

Перевод: Не требуется
Cубтитры: нет
Оригинальная аудиодорожка: русский

Режиссер: Давид Рондели

В ролях:
Нодар Шашик-оглы, Юрий Боголюбов, Агния Елекоева, Алескер Гаджи Алекперов, Лев Бордуков, Андрей Файт, Григорий Шпигель, Николай Боголюбов, Адиль Искендеров, Марина Фигнер, Валдемарс Зандбергс...
Об актёрах подробней

Описание:
По одноименной повести Имрана Касумова и Гасана Сеидбейли.
Гестапо Триеста сбилось с ног в поисках неуловимого и смелого партизана-разведчика по прозвищу Михайло. Он появлялся в городе в форме немецкого офицера, совершал невероятно дерзкие акции и исчезал невредимым, оставляя фашистов в дураках. Взрыв "Зольдатенхайма", кинотеатра, офицерского казино, железнодорожного моста, эшелона с гитлеровцами...

Источник: DVD5 R5
Качество видео: DVDRip
Формат видео: AVI

Видео: 672x496 (4:3), 25 fps, XviD ~ 1583 kbps avg, 0.190 bit/pixel
Аудио: 48 kHz, Dolby Digital AC3 2.0, 192 kbps

Раздача от:
Общее
Полное имя : Na.dalnih.beregah.1958.DVDRip_[New-team]_by_AVP_Studio.avi
Формат : AVI
Формат/Информация : Audio Video Interleave
Размер файла : 1,09 Гбайт
Продолжительность : 1 ч. 27 м.
Общий поток : 1785 Кбит/сек
Программа кодирования : VirtualDubMod 1.5.10.3 | www.virtualdub-fr.org || (build 2550/release)
Библиотека кодирования : VirtualDubMod build 2550/release

Видео
Идентификатор : 0
Формат : MPEG-4 Visual
Профиль формата : Advanced Simple@L5
Параметр BVOP формата : 1
Параметр QPel формата : Нет
Параметр GMC формата : Без точки перехода
Параметр матрицы формата : Выборочная
Идентификатор кодека : XVID
Идентификатор кодека/Подсказка : XviD
Продолжительность : 1 ч. 27 м.
Битрейт : 1583 Кбит/сек
Ширина : 672 пикселя
Высота : 496 пикселей
Соотношение сторон : 4:3
Частота кадров : 25,000 кадров/сек
Цветовое пространство : YUV
Субдискретизация насыщенности : 4:2:0
Битовая глубина : 8 бит
Тип развёртки : Прогрессивная
Метод сжатия : С потерями
Бит/(Пиксели*Кадры) : 0.190
Размер потока : 989 Мбайт (89%)
Библиотека кодирования : XviD 73

Аудио
Идентификатор : 1
Формат : AC-3
Формат/Информация : Audio Coding 3
Параметр Endianness формата : Big
Идентификатор кодека : 2000
Продолжительность : 1 ч. 27 м.
Вид битрейта : Постоянный
Битрейт : 192 Кбит/сек
Каналы : 2 канала
Расположение каналов : Front: L R
Частота : 48,0 КГц
Частота кадров : 31,250 кадров/сек (1536 SPF)
Битовая глубина : 16 бит
Метод сжатия : С потерями
Размер потока : 120 Мбайт (11%)
Выравнивание : Разделение по промежуткам
Продолжительность промежутка : 40 мс. (1,00 видеокадр)
Время предзагрузки промежутка : 500 мс
pb.wtf



Скачать На дальних берегах через торрент http://s018.radikal.ru/i514/1709/ec/64d02c116ec3.png Скачать фильм На дальних берегах через торрент бесплантно в хорошем качестве Описание:По одноименной повести Имрана Касумова и Гасана Сеидбейли.Гестапо Триеста сбилось с ног в поисках неуловимого и смелого ... 10 10 1
Info! Золотая раздача, скачанное не засчитывается.
Торрент: Зарегистрирован [2017-09-06 09:08] · скачан: 24 раз
Статус: √ проверено
Размер: 1.09 GB
Как cкачать? Как скачать На дальних берегах через торрент | qTorrent

% Раздел Тема Автор DL S | L
Наши мультфильмы [ 1.37 GB ] Три богатыря на дальних берегах [2012 мультфильм BDRip DUB лицензия] oleg8 Скачать
1 | 0
Кино СССР [ 1.09 GB ] На дальних берегах [1958 СССР биография DVDRip-AVC от AVP Studio] AVP Studio Скачать
1 | 0
Кино СССР [ 745 MB ] На дальних берегах [1958 СССР биография DVDRip от AVP Studio] AVP Studio Скачать
1 | 0
Наши Мультфильмы (HD, WEB-DL 720p, 1080p) [ 6.75 GB ] Алеша Попович и Тугарин Змей / Добрыня Никитич и Змей Горыныч / Илья Муромец и Соловей Разбойник / Три богатыря и Шамаханская царица / Три богатыря на дальних берегах [2004-2012 мультфильм BDRip 720p] от R.G. PiratFilms Demonessa Скачать
1 | 0
Иностранные мультфильмы [ 1.36 GB ] Три богатыря на дальних берегах [2012 мультфильм DVDRip Оригинал]-лицензия Зайчина Скачать
1 | 0
3D Мультфильмы [ 6.73 GB ] Три богатыря на дальних берегах [2012 мультфильм ]Вертикальная анаморфная стереопара Андрей фил Скачать
1 | 0
Наши мультфильмы [ 657 MB ] Три богатыря на дальних берегах [2012 мультфильм BDRip-AVC] jb_alex Скачать
1 | 0


>> Регистрируемся здесь <<






Отзывы и комментарии о схеме читаем и пишем здесь: ---> Отзывы и комментарии о схеме

Новые благодарочки в телеграм довольных пользователей:
скриншот   скриншот   скриншот   скриншот   скриншот
    Дорогой пользователь! Огромная просьба, поблагодарите релизера, оцените раздачу и оставьте свои комментарий, если Вы скачали На дальних берегах через торрент бесплатно! Внесите свою лепту в развитие PiratBit!
    Комментировать посты могут только пользователи прошедшие не сложную регистрацию
    Показать сообщения:    

    На дальних берегах через торрент
    Скачать бесплатно На дальних берегах
    На дальних берегах скачать торрент
    На дальних берегах смотреть онлайн
    Cкачать фильм На дальних берегах бесплатно
    На дальних берегах скачать торрент в хорошем качестве
    На дальних берегах смотреть онлайн бесплатно в хорошем качестве


    Вы не можете начинать темы
    Вы не можете отвечать на сообщения
    Вы не можете редактировать свои сообщения
    Вы не можете удалять свои сообщения
    Вы не можете голосовать в опросах
    Вы не можете прикреплять файлы к сообщениям
    Вы можете скачивать файлы