Ссылка на приватное зеркало всего за 1$. Внимание количество ограничено!!!

iTunes

iTunes

iTunes

1

iTunes

iTunes

iTunes

iTunes

iTunes

30
pack

$ от Little Big

ВАЖНО

!!Акция!!

Alien_RageХит недели

RePack

Resident Evil 21

ИГРА 18+

pack

RePack

jed

!!Акция!!

Alien_Rage

RePack

fifa19

RePack

Assassins Creed: Odyssey

RePack

NEED FOR SPEED™ PAYBACK

4 сезон

9 сезон

Бесстыжие 9 сезон

Все сериалы

все сериалы на PB.wtf

RePack

FAR CRY 5
  

Сигнал / The Signal (Уильям Юбэнк / William Eubank) [2014, фантастика, триллер, WEB-DL 1080p] [Open Matte] [MVO] + [AVO] pb.wtf

Сигнал через торрент pb.wtf

Раздают: 1 [ 0 KB/s ]
Размер: 9.51 GB | Добавлен: 2 года 10 мес. назад | Торрент скачан:309 раз
Скачать  

06-09-2017 17:02 Сигнал Скачать торрент  

Сигнал /The Signal Год выхода: 2014
Жанр: фантастика, триллер
Страна: США
Студия: Automatik Entertainment
Продолжительность: 01:37:20
Перевод #1: Профессиональный (многоголосый, закадровый) Рен-ТВ
Перевод #2: Авторский (одноголосый, закадровый) Ю.Немахов

Режиссер: Уильям Юбэнк

В ролях: Брентон Туэйтс, Лоренс Фишбёрн, Оливия Кук, Бо Напп, Лин Шэй, Роберт Лонгстрит, Патрик Дэвидсон, Джеффри Гроувер, Рой Кенни, Тимоти Холмс

О фильме:
Трое студентов-хакеров неожиданно начинают получать таинственные сообщения от незнакомца под ником NOMAD (Кочевник). Но они даже не подозревают, с чем имеют дело.

После серии необъяснимых происшествий друзья бегут из опасной ловушки, но тут же становятся объектами охоты «людей в чёрном», которые считают, что после контакта хакеры могут представлять угрозу для всего человечества.



Релиз:

Качество: WEB-DL 1080p
Формат: Matroska
Видео: 1920x1080 at 23.976 fps, MPEG4-AVC, ~10400 kbps
Аудио#1: Russian: 48 kHz, AC3, 2/0 (L,R) ch, ~256 kbps avg |Многоголосый закадровый, Рен-ТВ|
Аудио#2: Russian: 48 kHz, DTS, 3/2 (L,C,R,l,r) + LFE ch, ~1509 kbps avg |Авторский, Ю.Немахов|
Аудио#3: English: 48 kHz, DTS, 3/2 (L,C,R,l,r) + LFE ch, ~1509 kbps avg
Субтитры: English
Кульминация фильма снималась на стальном арочном мосту через ущелье Рио-Гранде в штате Нью-Мексико, который считается одним из самых эффектных и самых высоких (172 метра) в США.
Композитор фильма Нима Фахрара собственноручно сделал некоторые из уникальных инструментов, на которых была сыграна музыка к фильму.
Общее
Уникальный идентификатор : 254207985478263102706032248661303429750 (0xBF3EAD589EE4D64E8E917D66BE010A76)
Полное имя : The.Signal. WEB.DL.1080p.mkv
Формат : Matroska
Версия формата : Version 4 / Version 2
Размер файла : 9,51 Гбайт
Продолжительность : 1 ч. 37 м.
Режим общего битрейта : Переменный
Общий поток : 14,0 Мбит/сек
Дата кодирования : UTC 2017-09-06 07:43:17
Программа кодирования : mkvmerge v15.0.0 ('Duel with the Devil') 64-bit
Библиотека кодирования : libebml v1.3.5 + libmatroska v1.4.5

Видео
Идентификатор : 1
Формат : AVC
Формат/Информация : Advanced Video Codec
Профиль формата : [url=mailto:High@L4.0]High@L4.0[/url]
Параметр CABAC формата : Да
Параметр ReFrames формата : 4 кадра
Идентификатор кодека : V_MPEG4/ISO/AVC
Продолжительность : 1 ч. 37 м.
Вид битрейта : Переменный
Битрейт : 10,4 Мбит/сек
Максимальный битрейт : 15,0 Мбит/сек
Ширина : 1920 пикселей
Высота : 1080 пикселей
Соотношение сторон : 16:9
Режим частоты кадров : Постоянный
Частота кадров : 23,976 кадра/сек
Цветовое пространство : YUV
Субдискретизация насыщенности : 4:2:0
Битовая глубина : 8 бит
Тип развёртки : Прогрессивная
Бит/(Пиксели*Кадры) : 0.210
Размер потока : 7,10 Гбайт (75%)
Язык : English
Default : Да
Forced : Нет
Основные цвета : BT.709
Характеристики трансфера : BT.709
Коэффициенты матрицы : BT.709

Аудио #1
Идентификатор : 2
Формат : AC-3
Формат/Информация : Audio Coding 3
Расширение режима : CM (complete main)
Параметр Endianness формата : Big
Идентификатор кодека : A_AC3
Продолжительность : 1 ч. 37 м.
Вид битрейта : Постоянный
Битрейт : 256 Кбит/сек
Каналы : 2 канала
Расположение каналов : Front: L R
Частота : 48,0 КГц
Битовая глубина : 16 бит
Метод сжатия : С потерями
Размер потока : 178 Мбайт (2%)
Заголовок : Рен-ТВ
Язык : Russian
Default : Да
Forced : Нет

Аудио #2
Идентификатор : 3
Формат : DTS
Формат/Информация : Digital Theater Systems
Режим : 16
Параметр Endianness формата : Big
Идентификатор кодека : A_DTS
Продолжительность : 1 ч. 37 м.
Вид битрейта : Постоянный
Битрейт : 1510 Кбит/сек
Каналы : 6 каналов
Расположение каналов : Front: L C R, Side: L R, LFE
Частота : 48,0 КГц
Битовая глубина : 24 бит
Метод сжатия : С потерями
Размер потока : 1,03 Гбайт (11%)
Заголовок : Немахов
Язык : Russian
Default : Нет
Forced : Нет

Аудио #3
Идентификатор : 4
Формат : DTS
Формат/Информация : Digital Theater Systems
Режим : 16
Параметр Endianness формата : Big
Идентификатор кодека : A_DTS
Продолжительность : 1 ч. 37 м.
Вид битрейта : Постоянный
Битрейт : 1510 Кбит/сек
Каналы : 6 каналов
Расположение каналов : Front: L C R, Side: L R, LFE
Частота : 48,0 КГц
Битовая глубина : 24 бит
Метод сжатия : С потерями
Размер потока : 1,03 Гбайт (11%)
Язык : English
Default : Нет
Forced : Нет

Текст #1
Идентификатор : 5
Формат : PGS
Режим смешивания : zlib
Идентификатор кодека : S_HDMV/PGS
Идентификатор кодека/Информация : The same subtitle format used on BDs/HD-DVDs
Язык : English
Default : Нет
Forced : Нет

Текст #2
Идентификатор : 6
Формат : UTF-8
Идентификатор кодека : S_TEXT/UTF8
Идентификатор кодека/Информация : UTF-8 Plain Text
Язык : English
Default : Нет
Forced : Нет
скриншот  скриншот  скриншот  
pb.wtf



Скачать Сигнал через торрент http://s010.youpic.su/pictures/1504648800/50ef4f022cf8a8780f03219198ed7972.png Скачать фильм Сигнал через торрент бесплантно в хорошем качестве О фильме: Трое студентов-хакеров неожиданно начинают получать таинственные сообщения от незнакомца под ником NOMAD (Кочевник). Но они даже ... 10 10 5
Торрент: Зарегистрирован [2017-09-06 17:02] · скачан: 309 раз
Статус: √ проверено
Размер: 9.51 GB
Как cкачать? Как скачать Сигнал через торрент | qTorrent

% Раздел Тема Автор DL S | L
Фильмы 2014 [DVDrip, WEB-DLRip, HDrip] [ 2.54 GB ] Сигнал / The Signal [2014 WEB-DLRip-AVC] [Open Matte] MVO+AVO bober100 Скачать
2 | 0
Фильмы (Blu-ray, BD-Remux, HDDVD) [ 24.44 GB ] Сигнал / The Signal [2014 BDRemux Авторский Ю.Немахов Ворон Скачать
1 | 0
Фильмы с авторской озвучкой [ 1.36 GB ] Сигнал / The Signal [2014 HDRip Авторский [Ю.Немахов] Ворон Скачать
1 | 0
Фильмы без перевода [ 1.04 GB ] Сигнал / The Signal [2014 HDRip] [ENG] killermax2013 Скачать
1 | 0
Фильмы без перевода [ 848 MB ] Сигнал / The Signal [2014 HDRip-AVC] [Rus SUB] + [Orig] Eng killermax2013 Скачать
1 | 0
Фильмы 2006-2008 [ 744 MB ] Сигнал / The Signal [2007 HDRip] DVO -=Cherry=- Скачать
1 | 0

28-11-2019 20:33  

Отключить всю рекламу на сайте

    Дорогой пользователь! Огромная просьба, поблагодарите релизера, оцените раздачу и оставьте свои комментарий, если Вы скачали Сигнал через торрент бесплатно! Внесите свою лепту в развитие PiratBit!
    Комментировать посты могут только пользователи прошедшие не сложную регистрацию
    Показать сообщения:    

    Сигнал через торрент
    Скачать бесплатно Сигнал
    Сигнал скачать торрент
    Сигнал смотреть онлайн
    Cкачать фильм Сигнал бесплатно
    Сигнал скачать торрент в хорошем качестве
    Сигнал смотреть онлайн бесплатно в хорошем качестве


    Вы не можете начинать темы
    Вы не можете отвечать на сообщения
    Вы не можете редактировать свои сообщения
    Вы не можете удалять свои сообщения
    Вы не можете голосовать в опросах
    Вы не можете прикреплять файлы к сообщениям
    Вы можете скачивать файлы