Достать ножи: Стеклянная луковица

MVO

Добыча

Дубляж

Уэнсдэй

1 сезон

Тор

Дубляж

13 клиническая

1 сезон

Жестокая ночь

MVO

Одни из нас

1 сезон

Deluxe

pack

Рекомендуем

30

Пиратка

ВАЖНО

ВАЖНО

Ghostwire

Пиратка

jed

RePack

nioh2

RePack

RDR2

RePack

NEED FOR SPEED™ PAYBACK

RePack

скачать торрент

Кинопоиск HD

Острые козырьки 6 сезон

6 сезон

FAR CRY 6

RePack

скачать торрент

Лицензия

скачать торрент

MVO

1

1 сезон

скачать торрент

1 сезон

скачать торрент

Лицензия

  

Ночной гость (Владимир Шредель) [1958, СССР, драма, DVDRip от AVP Studio]

Ночной гость через торрент pb.wtf

Размер: 743 MB | Добавлен: 5 лет 4 мес. назад | Торрент скачан:19 раз
Смотреть онлайн | Скачать | Поддержите нас   

07-09-2017 08:58 Ночной гость Скачать торрент  

Ночной гость
Страна: СССР
Производство: Ленфильм

Жанр: драма
Год выпуска: 1958
Продолжительность: 00:54:51

Перевод: Не требуется
Cубтитры: нет
Оригинальная аудиодорожка: русский

Режиссер: Владимир Шредель

В ролях:
Иннокентий Смоктуновский, Александра Панова, Любовь Соколова, Валентина Пугачёва, Николай Елизаров, Георгий Жжёнов, Михаил Глузский, Игорь Ефимов, Таня Хабло, Юра Лепешкин...
Об актёрах подробней

Описание:
Телефильм по мотивам одноименного рассказа Ю.Нагибина.
Рыболовы-любители - художник Сергей и полковник в отставке Николай Семёнович - останавливаются в небольшом домике на берегу красивого озера. В доме живут бабка Юля с дочерью Катериной (Любовь Соколова), недавно ушедшей от пьяницы-мужа (Михаил Глузский), и двумя ее маленькими детьми. Поздним вечером появляется еще один постоялец, сорокалетний Пал Палыч (Иннокентий Смоктуновский), - и теперь все внимание хозяев направлено в его сторону...

Источник: DVD5 R5
Качество видео: DVDRip
Формат видео: AVI

Видео: 704x528 (4:3), 25 fps, XviD ~ 1692 kbps avg, 0.182 bit/pixel
Аудио: 48 kHz, Dolby Digital AC3 2.0, 192 kbps

Раздача от:
Общее
Полное имя : Nochnoy.gost.1958.DVDRip_[New-team]_by_AVP_Studio.avi
Формат : AVI
Формат/Информация : Audio Video Interleave
Размер файла : 743 Мбайт
Продолжительность : 54 м. 50 с.
Общий поток : 1893 Кбит/сек
Программа кодирования : VirtualDubMod 1.5.10.3 | www.virtualdub-fr.org || (build 2550/release)
Библиотека кодирования : VirtualDubMod build 2550/release

Видео
Идентификатор : 0
Формат : MPEG-4 Visual
Профиль формата : Advanced [email protected]
Параметр BVOP формата : 1
Параметр QPel формата : Нет
Параметр GMC формата : Без точки перехода
Параметр матрицы формата : Выборочная
Идентификатор кодека : XVID
Идентификатор кодека/Подсказка : XviD
Продолжительность : 54 м. 50 с.
Битрейт : 1692 Кбит/сек
Ширина : 704 пикселя
Высота : 528 пикселей
Соотношение сторон : 4:3
Частота кадров : 25,000 кадров/сек
Цветовое пространство : YUV
Субдискретизация насыщенности : 4:2:0
Битовая глубина : 8 бит
Тип развёртки : Прогрессивная
Метод сжатия : С потерями
Бит/(Пиксели*Кадры) : 0.182
Размер потока : 664 Мбайт (89%)
Библиотека кодирования : XviD 73

Аудио
Идентификатор : 1
Формат : AC-3
Формат/Информация : Audio Coding 3
Параметр Endianness формата : Big
Идентификатор кодека : 2000
Продолжительность : 54 м. 50 с.
Вид битрейта : Постоянный
Битрейт : 192 Кбит/сек
Каналы : 2 канала
Расположение каналов : Front: L R
Частота : 48,0 КГц
Частота кадров : 31,250 кадров/сек (1536 SPF)
Битовая глубина : 16 бит
Метод сжатия : С потерями
Размер потока : 75,3 Мбайт (10%)
Выравнивание : Разделение по промежуткам
Продолжительность промежутка : 40 мс. (1,00 видеокадр)
Время предзагрузки промежутка : 500 мс



Скачать Ночной гость через торрент http://i069.radikal.ru/1709/e7/837427088779.png Скачать, смотреть онлайн Ночной гость бесплантно в хорошем качестве Описание:Телефильм по мотивам одноименного рассказа Ю.Нагибина.Рыболовы-любители - художник Сергей и полковник в отставке Николай Семёнович ... 5 10 1
Info! Золотая раздача, скачанное не засчитывается.
Торрент: Зарегистрирован [2017-09-07 08:58] · скачан: 19 раз
Статус: √ проверено
Размер: 743 MB
Как cкачать? Как скачать Ночной гость через торрент | UTorrent

% Раздел Тема Автор DL S | L
Кино СССР [ 744 MB ] Ночной гость | | DVDRip-AVC от AVP Studio AVP Studio Скачать
1 | 0

28-11-2019 20:33  


Отключить вcю реклaмy на сайте, в т.ч. и в плеере онлайн просмотра!

    Дорогой пользователь! Огромная просьба, поблагодарите релизера, оцените раздачу и оставьте свои комментарий, если Вы скачали Ночной гость через торрент бесплатно!!
    Комментировать посты могут только пользователи прошедшие не сложную регистрацию
    Показать сообщения:    


    Ночной гость через торрент
    Скачать бесплатно Ночной гость
    Ночной гость скачать торрент
    Ночной гость смотреть онлайн
    Cкачать фильм Ночной гость бесплатно
    Ночной гость скачать торрент в хорошем качестве
    Ночной гость смотреть онлайн бесплатно в хорошем качестве
    Вы не можете начинать темы
    Вы не можете отвечать на сообщения
    Вы не можете редактировать свои сообщения
    Вы не можете удалять свои сообщения
    Вы не можете голосовать в опросах
    Вы не можете прикреплять файлы к сообщениям
    Вы можете скачивать файлы
    Ночной гость [1958, СССР, драма, DVDRip от AVP Studio] смотреть онлайн, скачать торрент picoco.icu