Ссылка на приватное зеркало всего за 1$. Внимание количество ограничено!!!

iTunes

iTunes

iTunes

1

iTunes

iTunes

iTunes

iTunes

iTunes

30
pack

$ от Little Big

ВАЖНО

!!Акция!!

Alien_RageХит недели

RePack

Resident Evil 21

ИГРА 18+

pack

RePack

jed

!!Акция!!

Alien_Rage

RePack

fifa19

RePack

Assassins Creed: Odyssey

RePack

NEED FOR SPEED™ PAYBACK

4 сезон

9 сезон

Бесстыжие 9 сезон

Все сериалы

все сериалы на PB.wtf

RePack

FAR CRY 5
  

1+1. Нарушая правила / Inseparables (Маркос Карневале) [2016, драма, комедия, WEB-DL 1080p] MVO [Лицензия / iTunes] pb.wtf

1+1. Нарушая правила через торрент pb.wtf

Размер: 3.84 GB | Добавлен: 2 года 10 мес. назад | Торрент скачан:186 раз
Скачать  

07-09-2017 11:09 1+1. Нарушая правила Скачать торрент  

1+1. Нарушая правила / Inseparables
Год выпуска: 2016
Страна: Аргентина
Жанр: драма, комедия
Продолжительность: 01:49:47
Перевод: Профессиональный многоголосый [Лицензия / iTunes]
Субтитры: отсутствуют

Режиссер: Маркос Карневале

rating

В ролях:

Оскар Мартинес, Родриго Де ла Серна, Алехандра Флейшнер, Карла Петерсон, Рита Паулс, Малена Санчес, Моника Райола, Х. Фламмини

Описание:

Филиппе — богатому бизнесмену, прикованному к инвалидному креслу, требуется помощник на дому. Но вместо квалифицированных специалистов, он неожиданно нанимает безработного Тито, у которого нет ни специального образования, ни навыков ухода за инвалидами. Дело в том, что Тито оказывается единственным, кто не проявляет к нему излишнего сострадания. Постепенно Тито осваивается с новыми обязанностями, а Филиппе начинает вновь ощущать вкус к жизни рядом со своим молодым и непосредственным помощником...

Качество: WEB-DL 1080p
Формат: MKV
Видео кодек: H.264
Аудио кодек: AC3

Видео: 1920x858 (2.25:1), 24.000 fps, MPEG-4 AVC ~4 527 kbps avg
Аудио: 48.0 kHz, AC3 Dolby Digital, 3/2 (L,C,R,l,r) + LFE ch, ~384 kbps
скриншот   скриншот   скриншот  

Общее
Уникальный идентификатор : 184257382363666580106728814695364574606 (0x8A9EAE571EF328F895AF5471A4323D8E)
Полное имя : D:\1+1.Narushaya.Pravila.2016.P.1080.WEB-DL.Rustorrents.mkv
Формат : Matroska
Версия формата : Version 2
Размер файла : 3,84 Гбайт
Продолжительность : 1 ч. 49 м.
Общий поток : 5010 Кбит/сек
Название фильма : Rustorrent.pw
Дата кодирования : UTC 2017-09-07 06:12:13
Программа кодирования : mkvmerge v7.8.0 ('River Man') 32bit built on Apr 3 2015 12:11:22
Библиотека кодирования : libebml v1.3.1 + libmatroska v1.4.2

Видео
Идентификатор : 1
Формат : AVC
Формат/Информация : Advanced Video Codec
Профиль формата : High@L4
Параметр CABAC формата : Да
Параметр ReFrames формата : 5 кадров
Параметр GOP формата : N=1
Идентификатор кодека : V_MPEG4/ISO/AVC
Продолжительность : 1 ч. 49 м.
Битрейт : 4527 Кбит/сек
Ширина : 1920 пикселей
Высота : 858 пикселей
Соотношение сторон : 2,25:1
Режим частоты кадров : Постоянный
Частота кадров : 24,000 кадра/сек
Цветовое пространство : YUV
Субдискретизация насыщенности : 4:2:0
Битовая глубина : 8 бит
Тип развёртки : Прогрессивная
Бит/(Пиксели*Кадры) : 0.114
Размер потока : 3,47 Гбайт (90%)
Язык : English
Default : Да
Forced : Нет
Цветовой диапазон : Limited
Основные цвета : BT.709
Характеристики трансфера : BT.709
Коэффициенты матрицы : BT.709

Аудио
Идентификатор : 2
Формат : AC-3
Формат/Информация : Audio Coding 3
Расширение режима : CM (complete main)
Параметр Endianness формата : Big
Идентификатор кодека : A_AC3
Продолжительность : 1 ч. 49 м.
Вид битрейта : Постоянный
Битрейт : 384 Кбит/сек
Каналы : 6 каналов
Расположение каналов : Front: L C R, Side: L R, LFE
Частота : 48,0 КГц
Частота кадров : 31,250 кадров/сек (1536 spf)
Метод сжатия : С потерями
Размер потока : 302 Мбайт (8%)
Заголовок : iTunes
Язык : Russian
Default : Да
Forced : Да

Меню
00:00:00.000 : en:Глава 1
00:06:45.500 : en:Глава 2
00:15:17.666 : en:Глава 3
00:21:32.998 : en:Глава 4
00:27:31.081 : en:Глава 5
00:33:24.539 : en:Глава 6
00:39:54.621 : en:Глава 7
00:45:52.287 : en:Глава 8
00:53:21.162 : en:Глава 9
01:00:34.953 : en:Глава 10
01:06:28.119 : en:Глава 11
01:12:43.827 : en:Глава 12
01:19:08.077 : en:Глава 13
01:26:17.284 : en:Глава 14
01:33:07.741 : en:Глава 15
01:38:35.157 : en:Глава 16
pb.wtf



Скачать 1+1. Нарушая правила через торрент http://s46.radikal.ru/i111/1709/20/d1df5def06c5.png Скачать фильм 1+1. Нарушая правила через торрент бесплантно в хорошем качестве Описание: Филиппе — богатому бизнесмену, прикованному к инвалидному креслу, требуется помощник на дому. Но вместо квалифицированных ... 7.1 10 9
Торрент: Зарегистрирован [2017-09-07 11:09] · скачан: 186 раз
Статус: √ проверено
Размер: 3.84 GB
Как cкачать? Как скачать 1+1. Нарушая правила через торрент | qTorrent

% Раздел Тема Автор DL S | L
Фильмы (WEB-DL 720p, 1080p) [ 3.42 GB ] 1+1. Нарушая правила / Inseparables [2016 WEB-DL 720р] MVO bober100 Скачать
1 | 0
Фильмы 2016 [DVDrip, WEB-DLRip, HDrip] (DUB, MVO) [ 1.77 GB ] 1+1. Нарушая правила / Inseparables [2016 WEB-DLRip-AVC] MVO bober100 Скачать
1 | 0
Фильмы 2016 [DVDrip, WEB-DLRip, HDrip] (DUB, MVO) [ 1.46 GB ] 1+1. Нарушая правила / Inseparables [2016 WEB-DLRip] MVO bober100 Скачать
1 | 0

28-11-2019 20:33  

Отключить всю рекламу на сайте

07-09-2017 12:43 1+1. Нарушая правила Скачать торрент  

07-09-2017 13:04 1+1. Нарушая правила Скачать торрент  

Даже не буду спрашивать, почему "Неразлучные друзья" хуже звучит этого перевода. А вообще забавно, что ремейк так быстро клепанули...pb.wtf



07-09-2017 13:25 1+1. Нарушая правила Скачать торрент  

очень сильный фильм был.посмотрим что смастерили теперь.спасибо.забираем.pb.wtf



07-09-2017 13:27 1+1. Нарушая правила Скачать торрент  

даже не буду качать, на волне успеха 1+1 все начали клепать с той же идеей. Лучше оригинала быть ничего не может!pb.wtf



07-09-2017 13:36 1+1. Нарушая правила Скачать торрент  

Так это ремейк или плагиат?pb.wtf



07-09-2017 14:10 1+1. Нарушая правила Скачать торрент  

Libran56 писал(а):

Так это ремейк или плагиат?

это на любителя, оригинал лучше с Омаром Сиpb.wtf



07-09-2017 15:06 1+1. Нарушая правила Скачать торрент  

Зачем нужно было переснимать кадр в кадр один из самых лучших фильмов этого десятилетия? Идиоты! Остальные слова только матом pb.wtf



07-09-2017 15:25 1+1. Нарушая правила Скачать торрент  

DeN72 писал(а):

Зачем нужно было переснимать кадр в кадр один из самых лучших фильмов этого десятилетия? Идиоты! Остальные слова только матом

Жажда наживы)))pb.wtf



09-09-2017 17:24 1+1. Нарушая правила Скачать торрент  

Рейтинг говорит о многом.pb.wtf



    Дорогой пользователь! Огромная просьба, поблагодарите релизера, оцените раздачу и оставьте свои комментарий, если Вы скачали 1+1. Нарушая правила через торрент бесплатно! Внесите свою лепту в развитие PiratBit!
    Комментировать посты могут только пользователи прошедшие не сложную регистрацию
    Показать сообщения:    

    1+1. Нарушая правила через торрент
    Скачать бесплатно 1+1. Нарушая правила
    1+1. Нарушая правила скачать торрент
    1+1. Нарушая правила смотреть онлайн
    Cкачать фильм 1+1. Нарушая правила бесплатно
    1+1. Нарушая правила скачать торрент в хорошем качестве
    1+1. Нарушая правила смотреть онлайн бесплатно в хорошем качестве


    Вы не можете начинать темы
    Вы не можете отвечать на сообщения
    Вы не можете редактировать свои сообщения
    Вы не можете удалять свои сообщения
    Вы не можете голосовать в опросах
    Вы не можете прикреплять файлы к сообщениям
    Вы можете скачивать файлы