новый адрес
Ссылка на приватное зеркало всего за 1$. Внимание количество ограничено!!!

iTunes

1+1

iTunes

мы

WEB-DL

1

iTunes

Чернобыль

iTunes

Ральф против интернета

Лицензия

ПШазам

Лицензия

Оно 2

Лицензия

30
pack

Вам бонус

ВАЖНО

!!Акция!!

Alien_RageХит недели

RePack

Resident Evil 21

ИГРА 18+

pack

RePack

jed

!!Акция!!

Alien_Rage

RePack

fifa19

RePack

Assassins Creed: Odyssey

RePack

NEED FOR SPEED™ PAYBACK

3 сезон

9 сезон

Бесстыжие 9 сезон

Все сериалы

все сериалы на PB.wtf

RePack

FAR CRY 5
Ребята, катастрофически не хватает 1900р. для оплаты серверов за Октябрь (всвязи с блокировками трафик упал в 3 раза), 1-2р., выручайте.
  

Три мушкетера / The Three Musketeers (Джордж Сидни) [1948 г., Боевик, драма, мелодрама, приключения, DVDRip-AVC, Профессиональный (двухголосый)] от ExKinoRay pb.wtf

Три мушкетера через торрент pb.wtf

Размер: 2.43 GB | Добавлен: 2 года 2 мес. назад | Торрент скачан:20 раз
Скачать  

09-09-2017 06:20 Три мушкетера Скачать торрент  

Три мушкетера / The Three Musketeers
Год выпуска: 1948
Страна: США
Жанр: Боевик, драма, мелодрама, приключения
Продолжительность: 02:00:40
Перевод: Профессиональный (двухголосый)

Режиссер: Джордж Сидни

Бюджет: $4 474 000
Премьера в мире: 19 октября 1948

rating

В ролях: Джин Келли, Энджела Лэнсбери, Винсент Прайс, Гиг Янг, Реджинальд Оуэн, Джон Саттон, Роберт Кут, Ван Хефлин, Роберт Уорвик, Фрэнк Морган, Лана Тернер, Джун Эллисон, Кинен Уинн

Описание: Д`Артаньян молодой провинциал приезжает покорять столицу Франции — Париж. Юноша жаждет приключений и поступает на службу в королевский полк мушкетеров. Красавец и виртуозный фехтовальщик добьется своего: его ожидают приключения, тайны, новые друзья, новые враги, поединки и, конечно же, любовь. Судьба улыбнется Д`Артаньяну - он обретет верных, честных, веселых и благородных друзей, а его возлюбленная девушка будет самой прелестной на свете. Именно ему предстоит спасти саму королеву Франции и получить награду из ее рук. Действуя по велению дружбы, любви и долга, герой наживет себе и злейших врагов. Среди них и могущественный кардинал Ришелье, и красавица-миледи, которая поклялась отомстить храброму гасконцу.

Качество: DVDRip-AVC
Формат: MKV
Видео кодек: MPEG4
Аудио кодек: AC3
Видео: MPEG-4 AVC, 2500 Кбит/с, 716x572@763x572, 25 кадров/сек
Аудио#1: Русский(AC3, 2 ch, 192 Кбит/с, 48 КГц)
Аудио#2: Английский (AC3, 2 ch, 192 Кбит/с, 48 КГц)
Релиз от:




raw [info]: 716x572p 16:15 @ 25/1 fps (cfr)
x264 [info]: using SAR=16/15
x264 [info]: using cpu capabilities: MMX2 SSE2Fast LZCNT
x264 [info]: profile High, level 4.1
x264 [info]: frame I:1082 Avg QP:15.13 size: 67456
x264 [info]: frame P:38610 Avg QP:17.66 size: 27040
x264 [info]: frame B:141308 Avg QP:19.25 size: 8109
x264 [info]: consecutive B-frames: 1.2% 2.2% 7.3% 24.3% 16.1% 41.7% 5.3% 1.3% 0.4% 0.2% 0.0% 0.0% 0.0% 0.0% 0.0% 0.0% 0.0%
-----
Общее
Уникальный идентификатор : 185288025692129358425172909403797091630 (0x8B652CFAC924B13B93E62137816A752E)
Полное имя : D:\Relizes\Three.Musketeers.1948.DVDRip-AVC.ExKinoRay.mkv
Формат : Matroska
Версия формата : Version 2
Размер файла : 2,43 Гбайт
Продолжительность : 2 ч. 0 м.
Общий поток : 2887 Кбит/сек
Дата кодирования : UTC 2017-09-09 04:05:21
Программа кодирования : mkvmerge v7.8.0 ('River Man') 32bit built on Apr 3 2015 12:11:22
Библиотека кодирования : libebml v1.3.1 + libmatroska v1.4.2

Видео
Идентификатор : 1
Формат : AVC
Формат/Информация : Advanced Video Codec
Профиль формата : High@L4.1
Параметр CABAC формата : Да
Параметр ReFrames формата : 14 кадров
Идентификатор кодека : V_MPEG4/ISO/AVC
Продолжительность : 2 ч. 0 м.
Битрейт : 2500 Кбит/сек
Ширина : 716 пикселей
Высота : 572 пикселя
Соотношение сторон : 4:3
Соотношение сторон в оригинале : 4:3
Режим частоты кадров : Постоянный
Частота кадров : 25,000 кадров/сек
Цветовое пространство : YUV
Субдискретизация насыщенности : 4:2:0
Битовая глубина : 8 бит
Тип развёртки : Прогрессивная
Бит/(Пиксели*Кадры) : 0.244
Размер потока : 2,06 Гбайт (85%)
Библиотека кодирования : x264 core 148 r2638 7599210
Настройки программы : cabac=1 / ref=14 / deblock=1:-2:-2 / analyse=0x3:0x133 / me=umh / subme=10 / psy=1 / psy_rd=1.05:0.15 / mixed_ref=1 / me_range=32 / chroma_me=1 / trellis=2 / 8x8dct=1 / cqm=0 / deadzone=21,11 / fast_pskip=0 / chroma_qp_offset=-3 / threads=4 / lookahead_threads=1 / sliced_threads=0 / nr=0 / decimate=0 / interlaced=0 / bluray_compat=0 / constrained_intra=0 / bframes=16 / b_pyramid=2 / b_adapt=2 / b_bias=0 / direct=3 / weightb=1 / open_gop=0 / weightp=2 / keyint=250 / keyint_min=25 / scenecut=40 / intra_refresh=0 / rc=2pass / mbtree=0 / bitrate=2500 / ratetol=1.0 / qcomp=0.60 / qpmin=0 / qpmax=69 / qpstep=4 / cplxblur=20.0 / qblur=0.5 / ip_ratio=1.40 / pb_ratio=1.30 / aq=1:1.00
Язык : English
Default : Да
Forced : Нет
Цветовой диапазон : Limited
Основные цвета : BT.601 NTSC
Характеристики трансфера : BT.601
Коэффициенты матрицы : BT.601

Аудио #1
Идентификатор : 2
Формат : AC-3
Формат/Информация : Audio Coding 3
Расширение режима : CM (complete main)
Параметр Endianness формата : Big
Идентификатор кодека : A_AC3
Продолжительность : 2 ч. 0 м.
Вид битрейта : Постоянный
Битрейт : 192 Кбит/сек
Каналы : 2 канала
Расположение каналов : Front: L R
Частота : 48,0 КГц
Частота кадров : 31,250 кадров/сек (1536 spf)
Метод сжатия : С потерями
Размер потока : 166 Мбайт (7%)
Язык : Russian
Default : Да
Forced : Нет

Аудио #2
Идентификатор : 3
Формат : AC-3
Формат/Информация : Audio Coding 3
Расширение режима : CM (complete main)
Параметр Endianness формата : Big
Идентификатор кодека : A_AC3
Продолжительность : 2 ч. 0 м.
Вид битрейта : Постоянный
Битрейт : 192 Кбит/сек
Каналы : 2 канала
Расположение каналов : Front: L R
Частота : 48,0 КГц
Частота кадров : 31,250 кадров/сек (1536 spf)
Метод сжатия : С потерями
Размер потока : 166 Мбайт (7%)
Язык : English
Default : Нет
Forced : Нет

pb.wtf



Скачать Три мушкетера через торрент http://i17.fastpic.ru/big/2011/0304/30/958e0d06deac266e555758f413e59230.jpg Скачать фильм Три мушкетера через торрент бесплантно в хорошем качестве Описание: Д`Артаньян молодой провинциал приезжает покорять столицу Франции — Париж. Юноша жаждет приключений и поступает на службу в ... 10 10 1
Info! Золотая раздача, скачанное не засчитывается.
Торрент: Зарегистрирован [2017-09-09 06:20] · скачан: 20 раз
Статус: √ проверено
Размер: 2.43 GB
Как cкачать? Как скачать Три мушкетера через торрент | qTorrent

28-11-2019 20:33  

Отключить всю рекламу на сайте

09-09-2017 06:24 Три мушкетера Скачать торрент  

Топик был перенесен из форума Оформление раздач (Кино, Видео и ТВ) в форум Классика зарубежного кино


Воронpb.wtf



    Дорогой пользователь! Огромная просьба, поблагодарите релизера, оцените раздачу и оставьте свои комментарий, если Вы скачали Три мушкетера через торрент бесплатно! Внесите свою лепту в развитие PiratBit!
    Комментировать посты могут только пользователи прошедшие не сложную регистрацию
    Показать сообщения:    

    Три мушкетера через торрент
    Скачать бесплатно Три мушкетера
    Три мушкетера скачать торрент
    Три мушкетера смотреть онлайн
    Cкачать фильм Три мушкетера бесплатно
    Три мушкетера скачать торрент в хорошем качестве
    Три мушкетера смотреть онлайн бесплатно в хорошем качестве


    Вы не можете начинать темы
    Вы не можете отвечать на сообщения
    Вы не можете редактировать свои сообщения
    Вы не можете удалять свои сообщения
    Вы не можете голосовать в опросах
    Вы не можете прикреплять файлы к сообщениям
    Вы можете скачивать файлы